General
Unique ID                                : 251505323957939589769809838239726460494 (0xBD3629D867E422FB90598AC738F05E4E)
Complete name                            : Big.Hero.6.The.Series.S01E08.Aunt.Cass.Goes.Out.1080p.iT.WEB-DL.AAC2.0.H.264-iT00NZ.mkv
Format                                   : Matroska
Format version                           : Version 4 / Version 2
File size                                : 834 MiB
Duration                                 : 22mn 6s
Overall bit rate                         : 5 273 Kbps
Encoded date                             : UTC 2018-07-01 11:20:40
Writing application                      : mkvmerge v18.0.0 ('Apricity') 64-bit
Writing library                          : libebml v1.3.5 + libmatroska v1.4.8

Video
ID                                       : 1
Format                                   : AVC
Format/Info                              : Advanced Video Codec
Format profile                           : [email protected]
Format settings, CABAC                   : Yes
Format settings, ReFrames                : 4 frames
Codec ID                                 : V_MPEG4/ISO/AVC
Duration                                 : 22mn 6s
Bit rate                                 : 5 116 Kbps
Width                                    : 1 920 pixels
Height                                   : 1 080 pixels
Display aspect ratio                     : 16:9
Frame rate mode                          : Constant
Frame rate                               : 23.976 (23976/1000) fps
Color space                              : YUV
Chroma subsampling                       : 4:2:0
Bit depth                                : 8 bits
Scan type                                : Progressive
Bits/(Pixel*Frame)                       : 0.103
Stream size                              : 809 MiB (97%)
Language                                 : English
Default                                  : Yes
Forced                                   : No
Color range                              : Limited
Color primaries                          : BT.709
Transfer characteristics                 : BT.709
Matrix coefficients                      : BT.709

Audio
ID                                       : 2
Format                                   : AAC
Format/Info                              : Advanced Audio Codec
Format profile                           : LC
Codec ID                                 : A_AAC
Duration                                 : 22mn 6s
Bit rate                                 : 154 Kbps
Channel(s)                               : 2 channels
Channel positions                        : Front: L R
Sampling rate                            : 48.0 KHz
Frame rate                               : 46.875 fps (1024 spf)
Compression mode                         : Lossy
Stream size                              : 24.4 MiB (3%)
Language                                 : English
Default                                  : Yes
Forced                                   : No

Text
ID                                       : 3
Format                                   : UTF-8
Codec ID                                 : S_TEXT/UTF8
Codec ID/Info                            : UTF-8 Plain Text
Duration                                 : 21mn 38s
Bit rate                                 : 89 bps
Count of elements                        : 485
Stream size                              : 14.1 KiB (0%)
Default                                  : No
Forced                                   : No