Password: 2018051206

General
Unique ID                                : 70188760180122931129126822908355313283 (0x34CDDD0E45C3A4AC1B68151B352A7E83)
Complete name                            : Robot.Chicken.S09E16.Hes.Not.Even.Aiming.at.the.Toilet.1080p.AMZN.WEB-DL.DDP5.1.H.264-NTb.mkv
Format                                   : Matroska
Format version                           : Version 4 / Version 2
File size                                : 428 MiB
Duration                                 : 11mn 11s
Overall bit rate                         : 5 344 Kbps
Encoded date                             : UTC 2018-07-02 07:11:44
Writing application                      : mkvmerge v23.0.0 ('The Bride Said No') 64-bit
Writing library                          : libebml v1.3.6 + libmatroska v1.4.9

Video
ID                                       : 1
Format                                   : AVC
Format/Info                              : Advanced Video Codec
Format profile                           : [email protected]
Format settings, CABAC                   : Yes
Format settings, ReFrames                : 4 frames
Codec ID                                 : V_MPEG4/ISO/AVC
Duration                                 : 11mn 11s
Bit rate                                 : 4 702 Kbps
Width                                    : 1 920 pixels
Height                                   : 1 080 pixels
Display aspect ratio                     : 16:9
Frame rate mode                          : Constant
Frame rate                               : 29.970 (30000/1001) fps
Color space                              : YUV
Chroma subsampling                       : 4:2:0
Bit depth                                : 8 bits
Scan type                                : Progressive
Bits/(Pixel*Frame)                       : 0.076
Stream size                              : 376 MiB (88%)
Default                                  : Yes
Forced                                   : No
Color range                              : Limited
Color primaries                          : BT.709
Transfer characteristics                 : BT.709
Matrix coefficients                      : BT.709

Audio
ID                                       : 2
Format                                   : E-AC-3
Format/Info                              : Audio Coding 3
Format settings, Endianness              : Big
Codec ID                                 : A_EAC3
Duration                                 : 11mn 11s
Bit rate mode                            : Constant
Bit rate                                 : 640 Kbps
Channel(s)                               : 6 channels
Channel positions                        : Front: L C R, Side: L R, LFE
Sampling rate                            : 48.0 KHz
Frame rate                               : 187.500 fps (256 spf)
Compression mode                         : Lossy
Stream size                              : 51.2 MiB (12%)
Language                                 : English
Default                                  : Yes
Forced                                   : No

Text
ID                                       : 3
Format                                   : UTF-8
Codec ID                                 : S_TEXT/UTF8
Codec ID/Info                            : UTF-8 Plain Text
Duration                                 : 10mn 58s
Bit rate                                 : 118 bps
Count of elements                        : 288
Stream size                              : 9.51 KiB (0%)
Title                                    : SDH
Language                                 : English
Default                                  : No
Forced                                   : No