General
Unique ID                                : 186742307650982381390734302603294199739 (0x8C7D429DB4B18D86F1F32C347F76CFBB)
Complete name                            : Shooter.S03E03.Sins.Of.The.Father.720p.AMZN.WEB-DL.DD+5.1.H.264-SiGMA.mkv
Format                                   : Matroska
Format version                           : Version 4 / Version 2
File size                                : 797 MiB
Duration                                 : 40mn 26s
Overall bit rate                         : 2 755 Kbps
Encoded date                             : UTC 2018-07-07 21:06:33
Writing application                      : mkvmerge v8.8.0 ('Wind at my back') 64bit
Writing library                          : libebml v1.3.3 + libmatroska v1.4.4

Video
ID                                       : 1
Format                                   : AVC
Format/Info                              : Advanced Video Codec
Format profile                           : [email protected]
Format settings, CABAC                   : Yes
Format settings, ReFrames                : 5 frames
Codec ID                                 : V_MPEG4/ISO/AVC
Duration                                 : 40mn 26s
Bit rate                                 : 2 113 Kbps
Width                                    : 1 280 pixels
Height                                   : 720 pixels
Display aspect ratio                     : 16:9
Frame rate mode                          : Constant
Frame rate                               : 23.976 (24000/1001) fps
Color space                              : YUV
Chroma subsampling                       : 4:2:0
Bit depth                                : 8 bits
Scan type                                : Progressive
Bits/(Pixel*Frame)                       : 0.096
Stream size                              : 611 MiB (77%)
Default                                  : Yes
Forced                                   : No
Color range                              : Limited
Color primaries                          : BT.709
Transfer characteristics                 : BT.709
Matrix coefficients                      : BT.709

Audio
ID                                       : 2
Format                                   : E-AC-3
Format/Info                              : Audio Coding 3
Format settings, Endianness              : Big
Codec ID                                 : A_EAC3
Duration                                 : 40mn 26s
Bit rate mode                            : Constant
Bit rate                                 : 640 Kbps
Channel(s)                               : 6 channels
Channel positions                        : Front: L C R, Side: L R, LFE
Sampling rate                            : 48.0 KHz
Frame rate                               : 187.500 fps (256 spf)
Compression mode                         : Lossy
Stream size                              : 185 MiB (23%)
Language                                 : English
Default                                  : Yes
Forced                                   : No

Text
ID                                       : 3
Format                                   : UTF-8
Codec ID                                 : S_TEXT/UTF8
Codec ID/Info                            : UTF-8 Plain Text
Duration                                 : 40mn 8s
Bit rate                                 : 78 bps
Count of elements                        : 787
Stream size                              : 23.0 KiB (0%)
Language                                 : English
Default                                  : No
Forced                                   : No