Human.2017.1080p.AMZN.WEB-DL.DDP2.0.H.264-NTG

Genre: Short | Sci-Fi
IMDB: https://www.imdb.com/title/tt6959734/
Directed by: Patrick Michael Ryder
Starring: Christie-Luke Jones, Leila Kotori, Nadia Lamin
Language: English
Plot: 8 TIMES AWARD WINNER WINNER -LA FILM AWARDS BEST FILM WINNER – LA FILM AWARDS BEST DIRECTOR WINNER – LA FILM AWARDS – FILM OF THE MONTH WINNER – HOLLYWOOD MOVING PICTURES FILM FESTIVAL WINNER – HENLEY FILM FESTIVAL 2016 WINNER – BEST DIRECTOR INDIEWISE WINNER – BEST FILM – MIAMI INDEPENDENT FILM FESTIVAL WINNER – FESTIGIOUS FILM FESTIVAL OFFICIAL SELECTION OF 20 WORLD WIDE FESTIVALS ‘ONE OF THE VERY BEST ON-SCREEN ROBOTS I HAVE EVEN SEEN’ -UK FILM REVIEW ‘A KNOCKOUT WINNER. THIS FILM PROVOKES WHAT IT MEANS TO BE ALIVE AND TO BE HUMAN. A SUPERB FILM’ – LA FILM AWARDS The official multi award winning sci-fi independent short film ‘Human’. Directed by multi award winning film maker Patrick Ryder, Human tells the story of Anna, a woman lost and alone who stumbles upon what appears to be an abandoned warehouse, but what she discovers inside will change her life forever with the discovery of Allium the robot ‘Played by Alex Phillips and voiced by Mitch Rouse’. An intelligent machine capable…

General
Unique ID                                : 66074362527588710647962632942551746939 (0x31B57596F775A5CB6D9417D4FF5EC97B)
Complete name                            : D:\Human.2017.1080p.AMZN.WEB-DL.DDP2.0.H.264-NTG.mkv
Format                                   : Matroska
Format version                           : Version 4 / Version 2
File size                                : 1.94 GiB
Duration                                 : 25 min 1 s
Overall bit rate mode                    : Variable
Overall bit rate                         : 11.1 Mb/s
Encoded date                             : UTC 2018-06-06 09:10:04
Writing application                      : mkvmerge v21.0.0 ('Tardigrades Will Inherit The Earth') 64-bit
Writing library                          : libebml v1.3.5 + libmatroska v1.4.8
 
Video
ID                                       : 1
Format                                   : AVC
Format/Info                              : Advanced Video Codec
Format profile                           : [email protected]
Format settings                          : CABAC / 4 Ref Frames
Format settings, CABAC                   : Yes
Format settings, RefFrames               : 4 frames
Codec ID                                 : V_MPEG4/ISO/AVC
Duration                                 : 25 min 1 s
Bit rate mode                            : Variable
Bit rate                                 : 10.9 Mb/s
Maximum bit rate                         : 15.0 Mb/s
Width                                    : 1 920 pixels
Height                                   : 1 080 pixels
Display aspect ratio                     : 16:9
Frame rate mode                          : Constant
Frame rate                               : 25.000 FPS
Color space                              : YUV
Chroma subsampling                       : 4:2:0
Bit depth                                : 8 bits
Scan type                                : Progressive
Bits/(Pixel*Frame)                       : 0.209
Stream size                              : 1.90 GiB (98%)
Default                                  : Yes
Forced                                   : No
Color range                              : Limited
Color primaries                          : BT.709
Transfer characteristics                 : BT.709
Matrix coefficients                      : BT.709
 
Audio
ID                                       : 2
Format                                   : E-AC-3
Format/Info                              : Enhanced Audio Coding 3
Codec ID                                 : A_EAC3
Duration                                 : 25 min 1 s
Bit rate mode                            : Constant
Bit rate                                 : 224 kb/s
Channel(s)                               : 2 channels
Channel positions                        : Front: L R
Sampling rate                            : 48.0 kHz
Frame rate                               : 187.500 FPS (256 SPF)
Compression mode                         : Lossy
Stream size                              : 40.1 MiB (2%)
Language                                 : English
Service kind                             : Complete Main
Default                                  : Yes
Forced                                   : No
 
Text
ID                                       : 3
Format                                   : UTF-8
Codec ID                                 : S_TEXT/UTF8
Codec ID/Info                            : UTF-8 Plain Text
Duration                                 : 23 min 35 s
Bit rate                                 : 26 b/s
Count of elements                        : 194
Stream size                              : 4.65 KiB (0%)
Title                                    : SDH
Language                                 : English
Default                                  : No
Forced                                   : No