Human.Flow.2017.Docu.WEBRip.x264-ION10

PG-13 | 2h 20min | Documentary | 20 October 2017 (USA) 
https://www.imdb.com/title/tt6573444/  rating: 6.8/10 from 1,383 users
https://www.rottentomatoes.com/m/human_flow/ Rating: 91% - 102 reviews

Over 65 million people around the world have been forced from their homes
to escape famine, climate change and war in the greatest human displacement...
Captured over the course of a year in 23 countries, the film follows a chain 
of urgent human stories that stretches across the globe...


Format                                   : MPEG-4
Format profile                           : Base Media
Codec ID                                 : isom
File size                                : 1.33 GiB
Duration                                 : 2h 20mn
Overall bit rate                         : 1 354 Kbps
Movie name                               : RARBG - Human.Flow.2017.WEBRip.x264-ION10
Encoded date                             : UTC 2018-02-18 14:05:40
Tagged date                              : UTC 2018-02-18 14:05:40
Writing application                      : Lavf57.83.100
Comment                                  : RARBG - Human.Flow.2017.WEBRip.x264-ION10

Video
ID                                       : 1
Format                                   : AVC
Format/Info                              : Advanced Video Codec
Format profile                           : [email protected]
Format settings, CABAC                   : Yes
Format settings, ReFrames                : 5 frames
Codec ID                                 : avc1
Codec ID/Info                            : Advanced Video Coding
Duration                                 : 2h 20mn
Bit rate                                 : 1 100 Kbps
Width                                    : 720 pixels
Height                                   : 390 pixels
Display aspect ratio                     : 1.85:1
Original display aspect ratio            : 1.85:1
Frame rate mode                          : Constant
Frame rate                               : 23.976 fps
Color space                              : YUV
Chroma subsampling                       : 4:2:0
Bit depth                                : 8 bits
Scan type                                : Progressive
Bits/(Pixel*Frame)                       : 0.163
Stream size                              : 1.07 GiB (81%)
Writing library                          : x264 core 152 r2851M ba24899
Encoded date                             : UTC 2018-02-18 14:05:40
Tagged date                              : UTC 2018-02-18 14:05:40

Audio
ID                                       : 2
Format                                   : AAC
Format/Info                              : Advanced Audio Codec
Format profile                           : LC
Codec ID                                 : 40
Duration                                 : 2h 20mn
Bit rate mode                            : Constant
Bit rate                                 : 256 Kbps
Channel(s)                               : 2 channels
Channel positions                        : Front: L R
Sampling rate                            : 48.0 KHz
Compression mode                         : Lossy
Delay relative to video                  : 83ms
Stream size                              : 258 MiB (19%)
Language                                 : English
Encoded date                             : UTC 2018-02-18 14:05:40
Tagged date                              : UTC 2018-02-18 14:05:40