General
Unique ID                                : 280130790317548912323534158244700799526 (0xD2BF3A4D4869DCFEEE05293AA668C226)
Complete name                            : 18041234.mkv
Format                                   : Matroska
Format version                           : Version 4 / Version 2
File size                                : 2.37 GiB
Duration                                 : 57mn 4s
Overall bit rate mode                    : Variable
Overall bit rate                         : 5 948 Kbps
Writing application                      : mkvmerge v21.0.0 ('Tardigrades Will Inherit The Earth') 64-bit
Writing library                          : libebml v1.3.5 + libmatroska v1.4.8

Video
ID                                       : 1
Format                                   : AVC
Format/Info                              : Advanced Video Codec
Format profile                           : [email protected]
Format settings, CABAC                   : Yes
Format settings, ReFrames                : 4 frames
Codec ID                                 : V_MPEG4/ISO/AVC
Duration                                 : 57mn 4s
Bit rate mode                            : Variable
Bit rate                                 : 5 606 Kbps
Maximum bit rate                         : 15.0 Mbps
Width                                    : 1 920 pixels
Height                                   : 1 080 pixels
Display aspect ratio                     : 16:9
Frame rate mode                          : Constant
Frame rate                               : 29.970 (30000/1001) fps
Color space                              : YUV
Chroma subsampling                       : 4:2:0
Bit depth                                : 8 bits
Scan type                                : Progressive
Bits/(Pixel*Frame)                       : 0.090
Stream size                              : 2.23 GiB (94%)
Default                                  : Yes
Forced                                   : No
Color range                              : Limited
Color primaries                          : BT.709
Transfer characteristics                 : BT.709
Matrix coefficients                      : BT.709
Statistics Tags Issue                    : mkvmerge v21.0.0 ('Tardigrades Will Inherit The Earth') 64-bit 2018-05-12 15:49:54 / mkvmerge v21.0.0 ('Tardigrades Will Inherit The Earth') 64-bit 
FromStats_BitRate                        : 5721405
FromStats_Duration                       : 00:57:04.187000000
FromStats_FrameCount                     : 102623
FromStats_StreamSize                     : 2448895125

Audio
ID                                       : 2
Format                                   : E-AC-3
Format/Info                              : Audio Coding 3
Format settings, Endianness              : Big
Codec ID                                 : A_EAC3
Duration                                 : 57mn 4s
Bit rate mode                            : Constant
Bit rate                                 : 224 Kbps
Channel(s)                               : 2 channels
Channel positions                        : Front: L R
Sampling rate                            : 48.0 KHz
Frame rate                               : 187.500 fps (256 spf)
Compression mode                         : Lossy
Delay relative to video                  : 12ms
Stream size                              : 91.4 MiB (4%)
Language                                 : English
Default                                  : Yes
Forced                                   : No
Statistics Tags Issue                    : mkvmerge v21.0.0 ('Tardigrades Will Inherit The Earth') 64-bit 2018-05-12 15:49:54 / mkvmerge v21.0.0 ('Tardigrades Will Inherit The Earth') 64-bit 
FromStats_BitRate                        : 224000
FromStats_Duration                       : 00:57:04.224000000
FromStats_FrameCount                     : 107007
FromStats_StreamSize                     : 95878272

Text #1
ID                                       : 3
Format                                   : UTF-8
Codec ID                                 : S_TEXT/UTF8
Codec ID/Info                            : UTF-8 Plain Text
Language                                 : English
Default                                  : No
Forced                                   : No
Statistics Tags Issue                    : mkvmerge v21.0.0 ('Tardigrades Will Inherit The Earth') 64-bit 2018-05-12 15:49:54 / mkvmerge v21.0.0 ('Tardigrades Will Inherit The Earth') 64-bit 
FromStats_BitRate                        : 109
FromStats_Duration                       : 00:56:32.634000000
FromStats_FrameCount                     : 1933
FromStats_StreamSize                     : 46601

Text #2
ID                                       : 4
Format                                   : UTF-8
Codec ID                                 : S_TEXT/UTF8
Codec ID/Info                            : UTF-8 Plain Text
Language                                 : English
Default                                  : No
Forced                                   : No
Statistics Tags Issue                    : mkvmerge v21.0.0 ('Tardigrades Will Inherit The Earth') 64-bit 2018-05-12 15:49:54 / mkvmerge v21.0.0 ('Tardigrades Will Inherit The Earth') 64-bit 
FromStats_BitRate                        : 110
FromStats_Duration                       : 00:56:32.634000000
FromStats_FrameCount                     : 1960
FromStats_StreamSize                     : 47057