General
Unique ID                                : 178848504053134254981668244148112541579 (0x868CF80CE0603EF39B2CFDB2C26F478B)
Complete name                            : 18032913.mkv
Format                                   : Matroska
Format version                           : Version 4 / Version 2
File size                                : 961 MiB
Duration                                 : 1h 0mn
Overall bit rate mode                    : Variable
Overall bit rate                         : 2 233 Kbps
Encoded date                             : UTC 2018-04-30 02:12:20
Writing application                      : mkvmerge v21.0.0 ('Tardigrades Will Inherit The Earth') 64-bit
Writing library                          : libebml v1.3.5 + libmatroska v1.4.8

Video
ID                                       : 1
Format                                   : AVC
Format/Info                              : Advanced Video Codec
Format profile                           : [email protected]
Format settings, CABAC                   : Yes
Format settings, ReFrames                : 5 frames
Codec ID                                 : V_MPEG4/ISO/AVC
Duration                                 : 1h 0mn
Bit rate mode                            : Variable
Bit rate                                 : 1 591 Kbps
Maximum bit rate                         : 4 500 Kbps
Width                                    : 1 280 pixels
Height                                   : 720 pixels
Display aspect ratio                     : 16:9
Frame rate mode                          : Constant
Frame rate                               : 23.976 (24000/1001) fps
Color space                              : YUV
Chroma subsampling                       : 4:2:0
Bit depth                                : 8 bits
Scan type                                : Progressive
Bits/(Pixel*Frame)                       : 0.072
Stream size                              : 685 MiB (71%)
Default                                  : Yes
Forced                                   : No
Color range                              : Limited
Color primaries                          : BT.709
Transfer characteristics                 : BT.709
Matrix coefficients                      : BT.709

Audio
ID                                       : 2
Format                                   : E-AC-3
Format/Info                              : Audio Coding 3
Format settings, Endianness              : Big
Codec ID                                 : A_EAC3
Duration                                 : 1h 0mn
Bit rate mode                            : Constant
Bit rate                                 : 640 Kbps
Channel(s)                               : 6 channels
Channel positions                        : Front: L C R, Side: L R, LFE
Sampling rate                            : 48.0 KHz
Frame rate                               : 187.500 fps (256 spf)
Compression mode                         : Lossy
Stream size                              : 275 MiB (29%)
Language                                 : English
Default                                  : Yes
Forced                                   : No

Text #1
ID                                       : 3
Format                                   : UTF-8
Codec ID                                 : S_TEXT/UTF8
Codec ID/Info                            : UTF-8 Plain Text
Duration                                 : 59mn 29s
Bit rate                                 : 82 bps
Count of elements                        : 1248
Stream size                              : 36.0 KiB (0%)
Language                                 : English
Default                                  : No
Forced                                   : No

Text #2
ID                                       : 4
Format                                   : UTF-8
Codec ID                                 : S_TEXT/UTF8
Codec ID/Info                            : UTF-8 Plain Text
Duration                                 : 59mn 29s
Bit rate                                 : 86 bps
Count of elements                        : 1310
Stream size                              : 37.6 KiB (0%)
Language                                 : English
Default                                  : No
Forced                                   : No

Menu
00:00:00.000                             : en:Previously On
00:01:01.000                             : en:Title Sequence
00:01:17.000                             : en:Chuck plans to bring down Bobby
00:02:54.000                             : en:Bobby and team attend an important meeting and ignore Spyros
00:06:21.000                             : en:Jack tells Chuck that he likes to meet Wendy
00:08:39.000                             : en:DeGiulio grants one week time to Connerty for providing the evidence
00:13:42.000                             : en:Aduba doubles his fees and Chuck agrees to it
00:16:33.000                             : en:Bach asks Bobby not to get paranoid
00:17:32.000                             : en:Aduba calls off the deal
00:18:59.000                             : en:Chuck tries to convince Spyros
00:21:01.000                             : en:DeGiulio motivates Bryan
00:22:28.000                             : en:Ari gives a shocker to Axelrod and team
00:26:58.000                             : en:Bobby tells a bad news to Wendy
00:29:50.000                             : en:Chuck decides to divert Bryan's attention
00:31:50.000                             : en:Bobby asks Orrin to give him some time to take a decision
00:33:12.000                             : en:Bobby meets Lara and tells her about the plea
00:36:24.000                             : en:Oscar comes to meet Taylor
00:37:35.000                             : en:Bryan scares Wendy and Chuck
00:41:22.000                             : en:Bobby and Wags have ortolan
00:44:05.000                             : en:Chuck decides to surrender and Wendy disagrees with the decision
00:48:17.000                             : en:Foley gives a piece of advice to Wendy
00:52:32.000                             : en:An old friend comes to meet Bobby
00:59:15.000                             : en:End Credits
00:59:34.000                             : en:Next On