PROPER: Removes Advertisement, as usual

General
Unique ID                      : 200631506374039099400401549370168897327 (0x96F038FBBECA56B07394BF97EBD2EF2F)
Complete name                  : New.Girl.S07E02.Tuesday.Meeting.PROPER.1080p.AMZN.WEB-DL.DDP5.1.H.264-LFF.mkv
Format                         : Matroska
Format version                 : Version 4 / Version 2
File size                      : 1.59 GiB
Duration                       : 21 min 50 s
Overall bit rate mode          : Variable
Overall bit rate               : 10.5 Mb/s
Encoded date                   : UTC 2018-05-07 19:44:46
Writing application            : mkvmerge v21.0.0 ('Tardigrades Will Inherit The Earth') 64-bit
Writing library                : libebml v1.3.5 + libmatroska v1.4.8

Video
ID                             : 1
Format                         : AVC
Format/Info                    : Advanced Video Codec
Format profile                 : [email protected]
Format settings, CABAC         : Yes
Format settings, RefFrames     : 4 frames
Codec ID                       : V_MPEG4/ISO/AVC
Duration                       : 21 min 49 s
Bit rate mode                  : Variable
Bit rate                       : 9 822 kb/s
Maximum bit rate               : 15.0 Mb/s
Width                          : 1 920 pixels
Height                         : 1 080 pixels
Display aspect ratio           : 16:9
Frame rate mode                : Constant
Frame rate                     : 23.976 (24000/1001) FPS
Color space                    : YUV
Chroma subsampling             : 4:2:0
Bit depth                      : 8 bits
Scan type                      : Progressive
Bits/(Pixel*Frame)             : 0.198
Stream size                    : 1.50 GiB (94%)
Default                        : Yes
Forced                         : No
Color range                    : Limited
Color primaries                : BT.709
Transfer characteristics       : BT.709
Matrix coefficients            : BT.709

Audio
ID                             : 2
Format                         : E-AC-3
Format/Info                    : Enhanced Audio Coding 3
Format settings, Endianness    : Big
Codec ID                       : A_EAC3
Duration                       : 21 min 49 s
Bit rate mode                  : Constant
Bit rate                       : 640 kb/s
Channel(s)                     : 6 channels
Channel positions              : Front: L C R, Side: L R, LFE
Sampling rate                  : 48.0 kHz
Frame rate                     : 187.500 FPS (256 SPF)
Compression mode               : Lossy
Stream size                    : 99.9 MiB (6%)
Language                       : English
Service kind                   : Complete Main
Default                        : Yes
Forced                         : No

Text
ID                             : 3
Format                         : UTF-8
Codec ID                       : S_TEXT/UTF8
Codec ID/Info                  : UTF-8 Plain Text
Duration                       : 21 min 46 s
Bit rate                       : 136 b/s
Count of elements              : 626
Stream size                    : 21.8 KiB (0%)
Title                          : SDH
Language                       : English
Default                        : No
Forced                         : No