PROPER: Removes Advertisement, as usual

General
Unique ID                      : 203278301071242884122477965275602482958 (0x98EDFA098481787EA2E238451369F70E)
Complete name                  : New.Girl.S07E01.About.Three.Years.Later.720p.AMZN.WEBRip.DDP5.1.x264-LFF.mkv
Format                         : Matroska
Format version                 : Version 4 / Version 2
File size                      : 1 004 MiB
Duration                       : 21 min 44 s
Overall bit rate               : 6 457 kb/s
Encoded date                   : UTC 2018-05-07 18:45:50
Writing application            : mkvmerge v21.0.0 ('Tardigrades Will Inherit The Earth') 64-bit
Writing library                : libebml v1.3.5 + libmatroska v1.4.8

Video
ID                             : 1
Format                         : AVC
Format/Info                    : Advanced Video Codec
Format profile                 : [email protected]
Format settings, CABAC         : Yes
Format settings, RefFrames     : 9 frames
Codec ID                       : V_MPEG4/ISO/AVC
Duration                       : 21 min 42 s
Bit rate                       : 5 824 kb/s
Width                          : 1 280 pixels
Height                         : 720 pixels
Display aspect ratio           : 16:9
Frame rate mode                : Constant
Frame rate                     : 23.976 (24000/1001) FPS
Color space                    : YUV
Chroma subsampling             : 4:2:0
Bit depth                      : 8 bits
Scan type                      : Progressive
Bits/(Pixel*Frame)             : 0.264
Stream size                    : 905 MiB (90%)
Default                        : Yes
Forced                         : No

Audio
ID                             : 2
Format                         : E-AC-3
Format/Info                    : Enhanced Audio Coding 3
Format settings, Endianness    : Big
Codec ID                       : A_EAC3
Duration                       : 21 min 42 s
Bit rate mode                  : Constant
Bit rate                       : 640 kb/s
Channel(s)                     : 6 channels
Channel positions              : Front: L C R, Side: L R, LFE
Sampling rate                  : 48.0 kHz
Frame rate                     : 187.500 FPS (256 SPF)
Compression mode               : Lossy
Delay relative to video        : 22 ms
Stream size                    : 99.4 MiB (10%)
Language                       : English
Service kind                   : Complete Main
Default                        : Yes
Forced                         : No

Text
ID                             : 3
Format                         : UTF-8
Codec ID                       : S_TEXT/UTF8
Codec ID/Info                  : UTF-8 Plain Text
Duration                       : 21 min 42 s
Bit rate                       : 124 b/s
Count of elements              : 612
Stream size                    : 19.9 KiB (0%)
Title                          : SDH
Language                       : English
Default                        : No
Forced                         : No