General
Unique ID                                : 180643092575204749114796754514139673854 (0x87E698187E27265DA725C3A5A523F4FE)
Complete name                            : Animal.Kingdom.2016.S02E04.Broken.Boards.1080p.AMZN.WEB-DL.DD5.1.x264-AJP69.mkv
Format                                   : Matroska
Format version                           : Version 4 / Version 2
File size                                : 4.36 GiB
Duration                                 : 53mn 9s
Overall bit rate mode                    : Variable
Overall bit rate                         : 11.7 Mbps
Encoded date                             : UTC 2017-07-13 00:18:30
Writing application                      : mkvmerge v13.0.0 ('The Juggler') 64bit
Writing library                          : libebml v1.3.4 + libmatroska v1.4.5

Video
ID                                       : 1
Format                                   : AVC
Format/Info                              : Advanced Video Codec
Format profile                           : [email protected]
Format settings, CABAC                   : Yes
Format settings, ReFrames                : 4 frames
Codec ID                                 : V_MPEG4/ISO/AVC
Duration                                 : 53mn 9s
Bit rate mode                            : Variable
Bit rate                                 : 11.1 Mbps
Maximum bit rate                         : 15.0 Mbps
Width                                    : 1 920 pixels
Height                                   : 1 080 pixels
Display aspect ratio                     : 16:9
Frame rate mode                          : Constant
Frame rate                               : 23.976 (24000/1001) fps
Color space                              : YUV
Chroma subsampling                       : 4:2:0
Bit depth                                : 8 bits
Scan type                                : Progressive
Bits/(Pixel*Frame)                       : 0.223
Stream size                              : 4.12 GiB (95%)
Default                                  : Yes
Forced                                   : No
Color range                              : Limited
Color primaries                          : BT.709
Transfer characteristics                 : BT.709
Matrix coefficients                      : BT.709

Audio
ID                                       : 2
Format                                   : E-AC-3
Format/Info                              : Audio Coding 3
Format settings, Endianness              : Big
Codec ID                                 : A_EAC3
Duration                                 : 53mn 9s
Bit rate mode                            : Constant
Bit rate                                 : 640 Kbps
Channel(s)                               : 6 channels
Channel positions                        : Front: L C R, Side: L R, LFE
Sampling rate                            : 48.0 KHz
Frame rate                               : 187.500 fps (256 spf)
Compression mode                         : Lossy
Stream size                              : 243 MiB (5%)
Language                                 : English
Default                                  : Yes
Forced                                   : No

Text
ID                                       : 3
Format                                   : UTF-8
Codec ID                                 : S_TEXT/UTF8
Codec ID/Info                            : UTF-8 Plain Text
Duration                                 : 52mn 42s
Bit rate                                 : 64 bps
Count of elements                        : 898
Stream size                              : 24.7 KiB (0%)
Language                                 : English
Default                                  : No
Forced                                   : No