General
Unique ID                                : 270620209594986664734716034022728413890 (0xCB978E7831F9CE875721C1606D8A32C2)
Complete name                            : The Time Machine.mkv https://www.imdb.com/title/tt0054387/
Format                                   : Matroska
Format version                           : Version 4
File size                                : 16.9 GiB
Duration                                 : 1 h 42 min
Overall bit rate mode                    : Variable
Overall bit rate                         : 23.5 Mb/s
Encoded date                             : UTC 2021-04-27 13:38:50
Writing application                      : mkvmerge v28.2.0 ('The Awakening') 64-bit
Writing library                          : libebml v1.3.6 + libmatroska v1.4.9

Video
ID                                       : 1
Format                                   : AVC
Format/Info                              : Advanced Video Codec
Format profile                           : [email protected]
Format settings                          : CABAC / 2 Ref Frames
Format settings, CABAC                   : Yes
Format settings, RefFrames               : 2 frames
Format settings, GOP                     : M=1, N=10
Codec ID                                 : V_MPEG4/ISO/AVC
Duration                                 : 1 h 42 min
Bit rate mode                            : Variable
Bit rate                                 : 20.0 Mb/s
Width                                    : 1 920 pixels
Height                                   : 1 080 pixels
Display aspect ratio                     : 16:9
Frame rate mode                          : Constant
Frame rate                               : 23.976 (24000/1001) FPS
Color space                              : YUV
Chroma subsampling                       : 4:2:0
Bit depth                                : 8 bits
Scan type                                : Progressive
Bits/(Pixel*Frame)                       : 0.401
Stream size                              : 14.3 GiB (85%)
Default                                  : Yes
Forced                                   : No

Audio #1
ID                                       : 2
Format                                   : AC-3
Format/Info                              : Audio Coding 3
Commercial name                          : Dolby Digital
Codec ID                                 : A_AC3
Duration                                 : 1 h 42 min
Bit rate mode                            : Constant
Bit rate                                 : 192 kb/s
Channel(s)                               : 1 channel
Channel layout                           : C
Sampling rate                            : 48.0 kHz
Frame rate                               : 31.250 FPS (1536 SPF)
Bit depth                                : 16 bits
Compression mode                         : Lossy
Stream size                              : 141 MiB (1%)
Title                                    : DD 1.0
Language                                 : French
Service kind                             : Complete Main
Default                                  : Yes
Forced                                   : No

Audio #2
ID                                       : 3
Format                                   : DTS XLL
Format/Info                              : Digital Theater Systems
Commercial name                          : DTS-HD Master Audio
Codec ID                                 : A_DTS
Duration                                 : 1 h 42 min
Bit rate mode                            : Variable
Bit rate                                 : 3 370 kb/s
Channel(s)                               : 6 channels
Channel layout                           : C L R Ls Rs LFE
Sampling rate                            : 48.0 kHz
Frame rate                               : 93.750 FPS (512 SPF)
Bit depth                                : 24 bits
Compression mode                         : Lossless
Stream size                              : 2.42 GiB (14%)
Title                                    : DTS-HD MA 5.1
Language                                 : English
Default                                  : No
Forced                                   : No

Text #1
ID                                       : 4
Format                                   : PGS
Muxing mode                              : zlib
Codec ID                                 : S_HDMV/PGS
Codec ID/Info                            : Picture based subtitle format used on BDs/HD-DVDs
Duration                                 : 1 h 41 min
Bit rate                                 : 17.4 kb/s
Count of elements                        : 1352
Stream size                              : 12.6 MiB (0%)
Title                                    : Complet
Language                                 : French
Default                                  : No
Forced                                   : No

Text #2
ID                                       : 5
Format                                   : PGS
Muxing mode                              : zlib
Codec ID                                 : S_HDMV/PGS
Codec ID/Info                            : Picture based subtitle format used on BDs/HD-DVDs
Duration                                 : 1 h 42 min
Bit rate                                 : 20.4 kb/s
Count of elements                        : 1664
Stream size                              : 14.9 MiB (0%)
Title                                    : Complet
Language                                 : English
Default                                  : No
Forced                                   : No

Menu
00:00:00.000                             : :Chapitre 01
00:02:14.509                             : :Chapitre 02
00:17:00.102                             : :Chapitre 03
00:22:59.836                             : :Chapitre 04
00:32:00.418                             : :Chapitre 05
00:43:53.505                             : :Chapitre 06
00:53:51.978                             : :Chapitre 07
01:01:08.748                             : :Chapitre 08
01:10:06.619                             : :Chapitre 09
01:18:43.218                             : :Chapitre 10
01:29:28.863                             : :Chapitre 11
01:36:08.888                             : :Chapitre 12