General
Unique ID                                : 94075416305661820665243611347879433105 (0x46C644210E0A6EC082E94C4CF5DF9391)
Complete name                            : Dragonfly.mkv https://www.imdb.com/title/tt0259288/
Format                                   : Matroska
Format version                           : Version 4
File size                                : 21.3 GiB
Duration                                 : 1 h 44 min
Overall bit rate mode                    : Variable
Overall bit rate                         : 29.2 Mb/s
Encoded date                             : UTC 2021-09-02 18:03:57
Writing application                      : mkvmerge v28.2.0 ('The Awakening') 64-bit
Writing library                          : libebml v1.3.6 + libmatroska v1.4.9

Video
ID                                       : 1
Format                                   : AVC
Format/Info                              : Advanced Video Codec
Format profile                           : [email protected]
Format settings                          : CABAC / 2 Ref Frames
Format settings, CABAC                   : Yes
Format settings, RefFrames               : 2 frames
Format settings, GOP                     : M=1, N=5
Codec ID                                 : V_MPEG4/ISO/AVC
Duration                                 : 1 h 44 min
Bit rate mode                            : Variable
Bit rate                                 : 24.2 Mb/s
Maximum bit rate                         : 38.2 Mb/s
Width                                    : 1 920 pixels
Height                                   : 1 080 pixels
Display aspect ratio                     : 16:9
Frame rate mode                          : Constant
Frame rate                               : 23.976 (24000/1001) FPS
Color space                              : YUV
Chroma subsampling                       : 4:2:0
Bit depth                                : 8 bits
Scan type                                : Progressive
Bits/(Pixel*Frame)                       : 0.488
Stream size                              : 17.7 GiB (83%)
Language                                 : English
Default                                  : Yes
Forced                                   : No

Audio #1
ID                                       : 2
Format                                   : AC-3
Format/Info                              : Audio Coding 3
Commercial name                          : Dolby Digital
Codec ID                                 : A_AC3
Duration                                 : 1 h 44 min
Bit rate mode                            : Constant
Bit rate                                 : 640 kb/s
Channel(s)                               : 6 channels
Channel layout                           : L R C LFE Ls Rs
Sampling rate                            : 48.0 kHz
Frame rate                               : 31.250 FPS (1536 SPF)
Bit depth                                : 16 bits
Compression mode                         : Lossy
Delay relative to video                  : 12 ms
Stream size                              : 477 MiB (2%)
Title                                    : DD 5.1
Language                                 : French
Service kind                             : Complete Main
Default                                  : Yes
Forced                                   : No

Audio #2
ID                                       : 3
Format                                   : DTS XLL
Format/Info                              : Digital Theater Systems
Commercial name                          : DTS-HD Master Audio
Codec ID                                 : A_DTS
Duration                                 : 1 h 44 min
Bit rate mode                            : Variable
Bit rate                                 : 4 289 kb/s
Channel(s)                               : 6 channels
Channel layout                           : C L R Ls Rs LFE
Sampling rate                            : 48.0 kHz
Frame rate                               : 93.750 FPS (512 SPF)
Bit depth                                : 24 bits
Compression mode                         : Lossless
Stream size                              : 3.13 GiB (15%)
Title                                    : DTS-HD MA 5.1
Language                                 : English
Default                                  : No
Forced                                   : No

Text #1
ID                                       : 4
Format                                   : UTF-8
Codec ID                                 : S_TEXT/UTF8
Codec ID/Info                            : UTF-8 Plain Text
Duration                                 : 1 h 11 min
Bit rate                                 : 0 b/s
Count of elements                        : 8
Stream size                              : 222 Bytes (0%)
Title                                    : Forced
Language                                 : French
Default                                  : Yes
Forced                                   : Yes

Text #2
ID                                       : 5
Format                                   : UTF-8
Codec ID                                 : S_TEXT/UTF8
Codec ID/Info                            : UTF-8 Plain Text
Duration                                 : 1 h 37 min
Bit rate                                 : 39 b/s
Count of elements                        : 859
Stream size                              : 28.0 KiB (0%)
Title                                    : Complet
Language                                 : French
Default                                  : No
Forced                                   : No

Text #3
ID                                       : 6
Format                                   : PGS
Muxing mode                              : zlib
Codec ID                                 : S_HDMV/PGS
Codec ID/Info                            : Picture based subtitle format used on BDs/HD-DVDs
Duration                                 : 1 h 36 min
Bit rate                                 : 33.6 kb/s
Count of elements                        : 2390
Stream size                              : 23.3 MiB (0%)
Title                                    : Complet
Language                                 : English
Default                                  : No
Forced                                   : No

Menu
00:00:00.000                             : :Chapitre 01
00:10:01.309                             : :Chapitre 02
00:20:01.658                             : :Chapitre 03
00:30:01.925                             : :Chapitre 04
00:40:03.150                             : :Chapitre 05
00:50:03.667                             : :Chapitre 06
01:00:04.559                             : :Chapitre 07
01:10:04.408                             : :Chapitre 08
01:20:05.509                             : :Chapitre 09
01:30:06.317                             : :Chapitre 10
01:40:06.083                             : :Chapitre 11