General
Unique ID                                : 319272200422280198975229820253875076425 (0xF03196D097A6C18E17EE1072E005FD49)
Complete name                            : 22060902.mkv
Format                                   : Matroska
Format version                           : Version 4
File size                                : 3.54 GiB
Duration                                 : 55 min 39 s
Overall bit rate                         : 9 103 kb/s
Writing application                      : mkvmerge v72.0.0 ('Minuano (Six-eight)') 64-bit
Writing library                          : libebml v1.4.4 + libmatroska v1.7.1

Video
ID                                       : 1
Format                                   : AVC
Format/Info                              : Advanced Video Codec
Format profile                           : [email protected]
Format settings                          : CABAC / 4 Ref Frames
Format settings, CABAC                   : Yes
Format settings, Reference frames        : 4 frames
Codec ID                                 : V_MPEG4/ISO/AVC
Duration                                 : 55 min 39 s
Bit rate mode                            : Constant
Bit rate                                 : 8 460 kb/s
Nominal bit rate                         : 10 000 kb/s
Width                                    : 1 920 pixels
Height                                   : 800 pixels
Display aspect ratio                     : 2.40:1
Frame rate mode                          : Constant
Frame rate                               : 23.976 (24000/1001) FPS
Color space                              : YUV
Chroma subsampling                       : 4:2:0
Bit depth                                : 8 bits
Scan type                                : Progressive
Bits/(Pixel*Frame)                       : 0.230
Stream size                              : 3.29 GiB (93%)
Default                                  : Yes
Forced                                   : No
Color range                              : Limited
Color primaries                          : BT.709
Transfer characteristics                 : BT.709
Matrix coefficients                      : BT.709

Audio
ID                                       : 2
Format                                   : E-AC-3
Format/Info                              : Enhanced AC-3
Commercial name                          : Dolby Digital Plus
Codec ID                                 : A_EAC3
Duration                                 : 55 min 39 s
Bit rate mode                            : Constant
Bit rate                                 : 640 kb/s
Channel(s)                               : 6 channels
Channel layout                           : L R C LFE Ls Rs
Sampling rate                            : 48.0 kHz
Frame rate                               : 31.250 FPS (1536 SPF)
Compression mode                         : Lossy
Stream size                              : 255 MiB (7%)
Language                                 : English
Service kind                             : Complete Main
Default                                  : Yes
Forced                                   : No

Text #1
ID                                       : 3
Format                                   : UTF-8
Codec ID                                 : S_TEXT/UTF8
Codec ID/Info                            : UTF-8 Plain Text
Duration                                 : 53 min 5 s
Bit rate                                 : 65 b/s
Count of elements                        : 724
Stream size                              : 25.6 KiB (0%)
Language                                 : English
Default                                  : No
Forced                                   : No

Text #2
ID                                       : 4
Format                                   : UTF-8
Codec ID                                 : S_TEXT/UTF8
Codec ID/Info                            : UTF-8 Plain Text
Duration                                 : 53 min 30 s
Bit rate                                 : 71 b/s
Count of elements                        : 802
Stream size                              : 28.1 KiB (0%)
Language                                 : English
Default                                  : No
Forced                                   : No

Text #3
ID                                       : 5
Format                                   : UTF-8
Codec ID                                 : S_TEXT/UTF8
Codec ID/Info                            : UTF-8 Plain Text
Duration                                 : 55 min 17 s
Bit rate                                 : 60 b/s
Count of elements                        : 716
Stream size                              : 24.5 KiB (0%)
Language                                 : Danish
Default                                  : No
Forced                                   : No

Text #4
ID                                       : 6
Format                                   : UTF-8
Codec ID                                 : S_TEXT/UTF8
Codec ID/Info                            : UTF-8 Plain Text
Duration                                 : 55 min 17 s
Bit rate                                 : 61 b/s
Count of elements                        : 716
Stream size                              : 25.0 KiB (0%)
Language                                 : Spanish
Default                                  : No
Forced                                   : No

Text #5
ID                                       : 7
Format                                   : UTF-8
Codec ID                                 : S_TEXT/UTF8
Codec ID/Info                            : UTF-8 Plain Text
Duration                                 : 55 min 17 s
Bit rate                                 : 55 b/s
Count of elements                        : 698
Stream size                              : 22.7 KiB (0%)
Language                                 : Finnish
Default                                  : No
Forced                                   : No

Text #6
ID                                       : 8
Format                                   : UTF-8
Codec ID                                 : S_TEXT/UTF8
Codec ID/Info                            : UTF-8 Plain Text
Duration                                 : 55 min 16 s
Bit rate                                 : 79 b/s
Count of elements                        : 1015
Stream size                              : 32.2 KiB (0%)
Language                                 : French
Default                                  : No
Forced                                   : No

Text #7
ID                                       : 9
Format                                   : UTF-8
Codec ID                                 : S_TEXT/UTF8
Codec ID/Info                            : UTF-8 Plain Text
Duration                                 : 55 min 17 s
Bit rate                                 : 59 b/s
Count of elements                        : 713
Stream size                              : 24.2 KiB (0%)
Language                                 : Norwegian Bokmal
Default                                  : No
Forced                                   : No

Text #8
ID                                       : 10
Format                                   : UTF-8
Codec ID                                 : S_TEXT/UTF8
Codec ID/Info                            : UTF-8 Plain Text
Duration                                 : 55 min 17 s
Bit rate                                 : 60 b/s
Count of elements                        : 714
Stream size                              : 24.5 KiB (0%)
Language                                 : Dutch
Default                                  : No
Forced                                   : No

Text #9
ID                                       : 11
Format                                   : UTF-8
Codec ID                                 : S_TEXT/UTF8
Codec ID/Info                            : UTF-8 Plain Text
Duration                                 : 55 min 17 s
Bit rate                                 : 61 b/s
Count of elements                        : 717
Stream size                              : 25.1 KiB (0%)
Language                                 : Swedish
Default                                  : No
Forced                                   : No

Menu
00:00:00.000                             : en:Prime Video
00:00:06.000                             : en:Scene 2
00:00:29.000                             : en:Scene 3
00:01:22.000                             : en:Scene 4
00:02:17.000                             : en:Scene 5
00:03:03.000                             : en:Scene 6
00:03:36.000                             : en:Scene 7
00:04:24.000                             : en:Title Sequence
00:04:33.000                             : en:Scene 9
00:05:20.000                             : en:Scene 10
00:07:10.000                             : en:Scene 11
00:07:34.000                             : en:Scene 12
00:09:17.000                             : en:Scene 13
00:10:08.000                             : en:Scene 14
00:11:20.000                             : en:Scene 15
00:12:10.000                             : en:Scene 16
00:12:44.000                             : en:Scene 17
00:13:36.000                             : en:Scene 18
00:14:07.000                             : en:Scene 19
00:14:39.000                             : en:Scene 20
00:15:13.000                             : en:Scene 21
00:15:58.000                             : en:Scene 22
00:16:15.000                             : en:Scene 23
00:21:22.000                             : en:Scene 24
00:21:54.000                             : en:Scene 25
00:23:39.000                             : en:Scene 26
00:24:03.000                             : en:Scene 27
00:25:46.000                             : en:Scene 28
00:26:51.000                             : en:Scene 29
00:27:49.000                             : en:Scene 30
00:29:21.000                             : en:Scene 31
00:30:03.000                             : en:Scene 32
00:30:46.000                             : en:Scene 33
00:31:19.000                             : en:Scene 34
00:32:02.000                             : en:Scene 35
00:32:47.000                             : en:Scene 36
00:33:48.000                             : en:Scene 37
00:34:51.000                             : en:Scene 38
00:35:23.000                             : en:Scene 39
00:36:41.000                             : en:Scene 40
00:39:34.000                             : en:Scene 41
00:39:51.000                             : en:Scene 42
00:40:06.000                             : en:Scene 43
00:40:22.000                             : en:Scene 44
00:40:52.000                             : en:Scene 45
00:41:13.000                             : en:Scene 46
00:43:28.000                             : en:Scene 47
00:44:50.000                             : en:Scene 48
00:45:26.000                             : en:Scene 49
00:46:05.000                             : en:Scene 50
00:47:15.000                             : en:Scene 51
00:48:25.000                             : en:Scene 52
00:49:09.000                             : en:Scene 53
00:49:40.000                             : en:Scene 54
00:50:32.000                             : en:Scene 55
00:51:12.000                             : en:Scene 56
00:51:45.000                             : en:Scene 57
00:52:17.000                             : en:Scene 58
00:53:14.000                             : en:End Credits