General
Unique ID                                : 158440595696460893848525614123080498918 (0x77328C7BEAF91F660D6636AD72843EE6)
Complete name                            : 22060820.mkv
Format                                   : Matroska
Format version                           : Version 4
File size                                : 3.37 GiB
Duration                                 : 57 min 35 s
Overall bit rate                         : 8 370 kb/s
Writing application                      : mkvmerge v72.0.0 ('Minuano (Six-eight)') 64-bit
Writing library                          : libebml v1.4.4 + libmatroska v1.7.1

Video
ID                                       : 1
Format                                   : AVC
Format/Info                              : Advanced Video Codec
Format profile                           : [email protected]
Format settings                          : CABAC / 4 Ref Frames
Format settings, CABAC                   : Yes
Format settings, Reference frames        : 4 frames
Codec ID                                 : V_MPEG4/ISO/AVC
Duration                                 : 57 min 35 s
Bit rate mode                            : Constant
Bit rate                                 : 7 723 kb/s
Nominal bit rate                         : 10 000 kb/s
Width                                    : 1 920 pixels
Height                                   : 960 pixels
Display aspect ratio                     : 2.000
Frame rate mode                          : Constant
Frame rate                               : 24.000 FPS
Color space                              : YUV
Chroma subsampling                       : 4:2:0
Bit depth                                : 8 bits
Scan type                                : Progressive
Bits/(Pixel*Frame)                       : 0.175
Stream size                              : 3.11 GiB (92%)
Default                                  : Yes
Forced                                   : No
Color range                              : Limited
Color primaries                          : BT.709
Transfer characteristics                 : BT.709
Matrix coefficients                      : BT.709

Audio
ID                                       : 2
Format                                   : E-AC-3
Format/Info                              : Enhanced AC-3
Commercial name                          : Dolby Digital Plus
Codec ID                                 : A_EAC3
Duration                                 : 57 min 35 s
Bit rate mode                            : Constant
Bit rate                                 : 640 kb/s
Channel(s)                               : 6 channels
Channel layout                           : L R C LFE Ls Rs
Sampling rate                            : 48.0 kHz
Frame rate                               : 31.250 FPS (1536 SPF)
Compression mode                         : Lossy
Stream size                              : 264 MiB (8%)
Language                                 : English
Service kind                             : Complete Main
Default                                  : Yes
Forced                                   : No

Text #1
ID                                       : 3
Format                                   : UTF-8
Codec ID                                 : S_TEXT/UTF8
Codec ID/Info                            : UTF-8 Plain Text
Duration                                 : 33 min 26 s
Bit rate                                 : 0 b/s
Count of elements                        : 6
Stream size                              : 94.0 Bytes (0%)
Language                                 : English
Default                                  : Yes
Forced                                   : Yes

Text #2
ID                                       : 4
Format                                   : UTF-8
Codec ID                                 : S_TEXT/UTF8
Codec ID/Info                            : UTF-8 Plain Text
Duration                                 : 54 min 29 s
Bit rate                                 : 49 b/s
Count of elements                        : 658
Stream size                              : 19.6 KiB (0%)
Language                                 : English
Default                                  : No
Forced                                   : No

Text #3
ID                                       : 5
Format                                   : UTF-8
Codec ID                                 : S_TEXT/UTF8
Codec ID/Info                            : UTF-8 Plain Text
Duration                                 : 54 min 29 s
Bit rate                                 : 53 b/s
Count of elements                        : 771
Stream size                              : 21.5 KiB (0%)
Language                                 : English
Default                                  : No
Forced                                   : No

Text #4
ID                                       : 6
Format                                   : UTF-8
Codec ID                                 : S_TEXT/UTF8
Codec ID/Info                            : UTF-8 Plain Text
Duration                                 : 54 min 32 s
Bit rate                                 : 77 b/s
Count of elements                        : 609
Stream size                              : 30.8 KiB (0%)
Language                                 : Arabic
Default                                  : No
Forced                                   : No

Text #5
ID                                       : 7
Format                                   : UTF-8
Codec ID                                 : S_TEXT/UTF8
Codec ID/Info                            : UTF-8 Plain Text
Duration                                 : 54 min 32 s
Bit rate                                 : 44 b/s
Count of elements                        : 608
Stream size                              : 17.6 KiB (0%)
Language                                 : Catalan
Default                                  : No
Forced                                   : No

Text #6
ID                                       : 8
Format                                   : UTF-8
Codec ID                                 : S_TEXT/UTF8
Codec ID/Info                            : UTF-8 Plain Text
Duration                                 : 54 min 32 s
Bit rate                                 : 46 b/s
Count of elements                        : 609
Stream size                              : 18.7 KiB (0%)
Language                                 : Czech
Default                                  : No
Forced                                   : No

Text #7
ID                                       : 9
Format                                   : UTF-8
Codec ID                                 : S_TEXT/UTF8
Codec ID/Info                            : UTF-8 Plain Text
Duration                                 : 54 min 32 s
Bit rate                                 : 42 b/s
Count of elements                        : 608
Stream size                              : 17.0 KiB (0%)
Language                                 : Danish
Default                                  : No
Forced                                   : No

Text #8
ID                                       : 10
Format                                   : UTF-8
Codec ID                                 : S_TEXT/UTF8
Codec ID/Info                            : UTF-8 Plain Text
Duration                                 : 54 min 32 s
Bit rate                                 : 46 b/s
Count of elements                        : 608
Stream size                              : 18.8 KiB (0%)
Language                                 : German
Default                                  : No
Forced                                   : No

Text #9
ID                                       : 11
Format                                   : UTF-8
Codec ID                                 : S_TEXT/UTF8
Codec ID/Info                            : UTF-8 Plain Text
Duration                                 : 54 min 32 s
Bit rate                                 : 86 b/s
Count of elements                        : 609
Stream size                              : 34.4 KiB (0%)
Language                                 : Greek
Default                                  : No
Forced                                   : No

Text #10
ID                                       : 12
Format                                   : UTF-8
Codec ID                                 : S_TEXT/UTF8
Codec ID/Info                            : UTF-8 Plain Text
Duration                                 : 54 min 32 s
Bit rate                                 : 44 b/s
Count of elements                        : 608
Stream size                              : 17.9 KiB (0%)
Language                                 : Spanish
Default                                  : No
Forced                                   : No

Text #11
ID                                       : 13
Format                                   : UTF-8
Codec ID                                 : S_TEXT/UTF8
Codec ID/Info                            : UTF-8 Plain Text
Duration                                 : 54 min 32 s
Bit rate                                 : 44 b/s
Count of elements                        : 608
Stream size                              : 17.6 KiB (0%)
Language                                 : Spanish
Default                                  : No
Forced                                   : No

Text #12
ID                                       : 14
Format                                   : UTF-8
Codec ID                                 : S_TEXT/UTF8
Codec ID/Info                            : UTF-8 Plain Text
Duration                                 : 54 min 32 s
Bit rate                                 : 40 b/s
Count of elements                        : 609
Stream size                              : 16.2 KiB (0%)
Language                                 : Basque
Default                                  : No
Forced                                   : No

Text #13
ID                                       : 15
Format                                   : UTF-8
Codec ID                                 : S_TEXT/UTF8
Codec ID/Info                            : UTF-8 Plain Text
Duration                                 : 54 min 32 s
Bit rate                                 : 40 b/s
Count of elements                        : 607
Stream size                              : 16.0 KiB (0%)
Language                                 : Finnish
Default                                  : No
Forced                                   : No

Text #14
ID                                       : 16
Format                                   : UTF-8
Codec ID                                 : S_TEXT/UTF8
Codec ID/Info                            : UTF-8 Plain Text
Duration                                 : 54 min 32 s
Bit rate                                 : 46 b/s
Count of elements                        : 606
Stream size                              : 18.5 KiB (0%)
Language                                 : fil
Default                                  : No
Forced                                   : No

Text #15
ID                                       : 17
Format                                   : UTF-8
Codec ID                                 : S_TEXT/UTF8
Codec ID/Info                            : UTF-8 Plain Text
Duration                                 : 54 min 32 s
Bit rate                                 : 46 b/s
Count of elements                        : 609
Stream size                              : 18.4 KiB (0%)
Language                                 : French
Default                                  : No
Forced                                   : No

Text #16
ID                                       : 18
Format                                   : UTF-8
Codec ID                                 : S_TEXT/UTF8
Codec ID/Info                            : UTF-8 Plain Text
Duration                                 : 54 min 32 s
Bit rate                                 : 49 b/s
Count of elements                        : 665
Stream size                              : 19.7 KiB (0%)
Language                                 : French
Default                                  : No
Forced                                   : No

Text #17
ID                                       : 19
Format                                   : UTF-8
Codec ID                                 : S_TEXT/UTF8
Codec ID/Info                            : UTF-8 Plain Text
Duration                                 : 54 min 32 s
Bit rate                                 : 40 b/s
Count of elements                        : 608
Stream size                              : 16.1 KiB (0%)
Language                                 : Galician
Default                                  : No
Forced                                   : No

Text #18
ID                                       : 20
Format                                   : UTF-8
Codec ID                                 : S_TEXT/UTF8
Codec ID/Info                            : UTF-8 Plain Text
Duration                                 : 54 min 32 s
Bit rate                                 : 73 b/s
Count of elements                        : 609
Stream size                              : 29.3 KiB (0%)
Language                                 : Hebrew
Default                                  : No
Forced                                   : No

Text #19
ID                                       : 21
Format                                   : UTF-8
Codec ID                                 : S_TEXT/UTF8
Codec ID/Info                            : UTF-8 Plain Text
Duration                                 : 54 min 32 s
Bit rate                                 : 109 b/s
Count of elements                        : 609
Stream size                              : 43.7 KiB (0%)
Language                                 : Hindi
Default                                  : No
Forced                                   : No

Text #20
ID                                       : 22
Format                                   : UTF-8
Codec ID                                 : S_TEXT/UTF8
Codec ID/Info                            : UTF-8 Plain Text
Duration                                 : 54 min 32 s
Bit rate                                 : 46 b/s
Count of elements                        : 608
Stream size                              : 18.8 KiB (0%)
Language                                 : Hungarian
Default                                  : No
Forced                                   : No

Text #21
ID                                       : 23
Format                                   : UTF-8
Codec ID                                 : S_TEXT/UTF8
Codec ID/Info                            : UTF-8 Plain Text
Duration                                 : 54 min 32 s
Bit rate                                 : 43 b/s
Count of elements                        : 608
Stream size                              : 17.2 KiB (0%)
Language                                 : Indonesian
Default                                  : No
Forced                                   : No

Text #22
ID                                       : 24
Format                                   : UTF-8
Codec ID                                 : S_TEXT/UTF8
Codec ID/Info                            : UTF-8 Plain Text
Duration                                 : 54 min 32 s
Bit rate                                 : 44 b/s
Count of elements                        : 608
Stream size                              : 17.9 KiB (0%)
Language                                 : Italian
Default                                  : No
Forced                                   : No

Text #23
ID                                       : 25
Format                                   : UTF-8
Codec ID                                 : S_TEXT/UTF8
Codec ID/Info                            : UTF-8 Plain Text
Duration                                 : 54 min 40 s
Bit rate                                 : 38 b/s
Count of elements                        : 549
Stream size                              : 15.3 KiB (0%)
Language                                 : Japanese
Default                                  : No
Forced                                   : No

Text #24
ID                                       : 26
Format                                   : UTF-8
Codec ID                                 : S_TEXT/UTF8
Codec ID/Info                            : UTF-8 Plain Text
Duration                                 : 54 min 32 s
Bit rate                                 : 113 b/s
Count of elements                        : 609
Stream size                              : 45.3 KiB (0%)
Language                                 : Kannada
Default                                  : No
Forced                                   : No

Text #25
ID                                       : 27
Format                                   : UTF-8
Codec ID                                 : S_TEXT/UTF8
Codec ID/Info                            : UTF-8 Plain Text
Duration                                 : 54 min 32 s
Bit rate                                 : 48 b/s
Count of elements                        : 607
Stream size                              : 19.5 KiB (0%)
Language                                 : Korean
Default                                  : No
Forced                                   : No

Text #26
ID                                       : 28
Format                                   : UTF-8
Codec ID                                 : S_TEXT/UTF8
Codec ID/Info                            : UTF-8 Plain Text
Duration                                 : 54 min 32 s
Bit rate                                 : 136 b/s
Count of elements                        : 609
Stream size                              : 54.5 KiB (0%)
Language                                 : Malayalam
Default                                  : No
Forced                                   : No

Text #27
ID                                       : 29
Format                                   : UTF-8
Codec ID                                 : S_TEXT/UTF8
Codec ID/Info                            : UTF-8 Plain Text
Duration                                 : 54 min 32 s
Bit rate                                 : 42 b/s
Count of elements                        : 609
Stream size                              : 17.0 KiB (0%)
Language                                 : Malay
Default                                  : No
Forced                                   : No

Text #28
ID                                       : 30
Format                                   : UTF-8
Codec ID                                 : S_TEXT/UTF8
Codec ID/Info                            : UTF-8 Plain Text
Duration                                 : 54 min 32 s
Bit rate                                 : 43 b/s
Count of elements                        : 608
Stream size                              : 17.5 KiB (0%)
Language                                 : Norwegian Bokmal
Default                                  : No
Forced                                   : No

Text #29
ID                                       : 31
Format                                   : UTF-8
Codec ID                                 : S_TEXT/UTF8
Codec ID/Info                            : UTF-8 Plain Text
Duration                                 : 54 min 32 s
Bit rate                                 : 42 b/s
Count of elements                        : 608
Stream size                              : 17.2 KiB (0%)
Language                                 : Dutch
Default                                  : No
Forced                                   : No

Text #30
ID                                       : 32
Format                                   : UTF-8
Codec ID                                 : S_TEXT/UTF8
Codec ID/Info                            : UTF-8 Plain Text
Duration                                 : 54 min 32 s
Bit rate                                 : 38 b/s
Count of elements                        : 607
Stream size                              : 15.5 KiB (0%)
Language                                 : Polish
Default                                  : No
Forced                                   : No

Text #31
ID                                       : 33
Format                                   : UTF-8
Codec ID                                 : S_TEXT/UTF8
Codec ID/Info                            : UTF-8 Plain Text
Duration                                 : 54 min 32 s
Bit rate                                 : 40 b/s
Count of elements                        : 609
Stream size                              : 16.0 KiB (0%)
Language                                 : Portuguese
Default                                  : No
Forced                                   : No

Text #32
ID                                       : 34
Format                                   : UTF-8
Codec ID                                 : S_TEXT/UTF8
Codec ID/Info                            : UTF-8 Plain Text
Duration                                 : 54 min 32 s
Bit rate                                 : 44 b/s
Count of elements                        : 609
Stream size                              : 17.8 KiB (0%)
Language                                 : Portuguese
Default                                  : No
Forced                                   : No

Text #33
ID                                       : 35
Format                                   : UTF-8
Codec ID                                 : S_TEXT/UTF8
Codec ID/Info                            : UTF-8 Plain Text
Duration                                 : 54 min 32 s
Bit rate                                 : 49 b/s
Count of elements                        : 609
Stream size                              : 19.6 KiB (0%)
Language                                 : Romanian
Default                                  : No
Forced                                   : No

Text #34
ID                                       : 36
Format                                   : UTF-8
Codec ID                                 : S_TEXT/UTF8
Codec ID/Info                            : UTF-8 Plain Text
Duration                                 : 54 min 32 s
Bit rate                                 : 73 b/s
Count of elements                        : 609
Stream size                              : 29.2 KiB (0%)
Language                                 : Russian
Default                                  : No
Forced                                   : No

Text #35
ID                                       : 37
Format                                   : UTF-8
Codec ID                                 : S_TEXT/UTF8
Codec ID/Info                            : UTF-8 Plain Text
Duration                                 : 54 min 32 s
Bit rate                                 : 41 b/s
Count of elements                        : 607
Stream size                              : 16.4 KiB (0%)
Language                                 : Swedish
Default                                  : No
Forced                                   : No

Text #36
ID                                       : 38
Format                                   : UTF-8
Codec ID                                 : S_TEXT/UTF8
Codec ID/Info                            : UTF-8 Plain Text
Duration                                 : 54 min 32 s
Bit rate                                 : 120 b/s
Count of elements                        : 609
Stream size                              : 48.2 KiB (0%)
Language                                 : Tamil
Default                                  : No
Forced                                   : No

Text #37
ID                                       : 39
Format                                   : UTF-8
Codec ID                                 : S_TEXT/UTF8
Codec ID/Info                            : UTF-8 Plain Text
Duration                                 : 54 min 32 s
Bit rate                                 : 121 b/s
Count of elements                        : 609
Stream size                              : 48.7 KiB (0%)
Language                                 : Telugu
Default                                  : No
Forced                                   : No

Text #38
ID                                       : 40
Format                                   : UTF-8
Codec ID                                 : S_TEXT/UTF8
Codec ID/Info                            : UTF-8 Plain Text
Duration                                 : 54 min 32 s
Bit rate                                 : 120 b/s
Count of elements                        : 609
Stream size                              : 48.3 KiB (0%)
Language                                 : Thai
Default                                  : No
Forced                                   : No

Text #39
ID                                       : 41
Format                                   : UTF-8
Codec ID                                 : S_TEXT/UTF8
Codec ID/Info                            : UTF-8 Plain Text
Duration                                 : 54 min 32 s
Bit rate                                 : 44 b/s
Count of elements                        : 608
Stream size                              : 17.8 KiB (0%)
Language                                 : Turkish
Default                                  : No
Forced                                   : No

Text #40
ID                                       : 42
Format                                   : UTF-8
Codec ID                                 : S_TEXT/UTF8
Codec ID/Info                            : UTF-8 Plain Text
Duration                                 : 54 min 32 s
Bit rate                                 : 74 b/s
Count of elements                        : 609
Stream size                              : 29.8 KiB (0%)
Language                                 : Ukrainian
Default                                  : No
Forced                                   : No

Text #41
ID                                       : 43
Format                                   : UTF-8
Codec ID                                 : S_TEXT/UTF8
Codec ID/Info                            : UTF-8 Plain Text
Duration                                 : 54 min 32 s
Bit rate                                 : 56 b/s
Count of elements                        : 609
Stream size                              : 22.6 KiB (0%)
Language                                 : Vietnamese
Default                                  : No
Forced                                   : No

Text #42
ID                                       : 44
Format                                   : UTF-8
Codec ID                                 : S_TEXT/UTF8
Codec ID/Info                            : UTF-8 Plain Text
Duration                                 : 54 min 32 s
Bit rate                                 : 42 b/s
Count of elements                        : 609
Stream size                              : 16.8 KiB (0%)
Language                                 : Chinese
Default                                  : No
Forced                                   : No

Text #43
ID                                       : 45
Format                                   : UTF-8
Codec ID                                 : S_TEXT/UTF8
Codec ID/Info                            : UTF-8 Plain Text
Duration                                 : 54 min 32 s
Bit rate                                 : 38 b/s
Count of elements                        : 609
Stream size                              : 15.3 KiB (0%)
Language                                 : Chinese
Default                                  : No
Forced                                   : No

Menu
00:00:00.000                             : en:Prime Video
00:00:05.000                             : en:Previously on The Peripheral
00:00:44.000                             : en:Scene 3
00:01:52.000                             : en:Opening Credits
00:03:31.000                             : en:Scene 5
00:04:35.000                             : en:Scene 6
00:05:33.000                             : en:Scene 7
00:06:32.000                             : en:Scene 8
00:06:40.000                             : en:Scene 9
00:06:48.000                             : en:Scene 10
00:08:40.000                             : en:Scene 11
00:09:18.000                             : en:Scene 12
00:11:52.000                             : en:Scene 13
00:13:35.000                             : en:Scene 14
00:14:49.000                             : en:Scene 15
00:16:23.000                             : en:Scene 16
00:17:38.000                             : en:Scene 17
00:19:33.000                             : en:Scene 18
00:19:56.000                             : en:Scene 19
00:20:58.000                             : en:Scene 20
00:21:14.000                             : en:Scene 21
00:22:36.000                             : en:Scene 22
00:23:18.000                             : en:Scene 23
00:24:40.000                             : en:Scene 24
00:25:56.000                             : en:Scene 25
00:27:35.000                             : en:Scene 26
00:28:13.000                             : en:Scene 27
00:30:32.000                             : en:Scene 28
00:31:32.000                             : en:Scene 29
00:32:49.000                             : en:Scene 30
00:33:26.000                             : en:Scene 31
00:34:42.000                             : en:Scene 32
00:36:54.000                             : en:Scene 33
00:37:57.000                             : en:Scene 34
00:39:44.000                             : en:Scene 35
00:40:26.000                             : en:Scene 36
00:41:14.000                             : en:Scene 37
00:43:13.000                             : en:Scene 38
00:45:59.000                             : en:Scene 39
00:48:05.000                             : en:Scene 40
00:48:30.000                             : en:End Credits
00:51:01.000                             : en:Scene 42
00:54:44.000                             : en:End Credits