General
Unique ID                                : 322048790219829575169759980496851199423 (0xF2485742D9B022DC5E2290C31E6E65BF)
Complete name                            : 22060720.mkv
Format                                   : Matroska
Format version                           : Version 4
File size                                : 1.86 GiB
Duration                                 : 42 min 59 s
Overall bit rate                         : 6 199 kb/s
Writing application                      : mkvmerge v72.0.0 ('Minuano (Six-eight)') 64-bit
Writing library                          : libebml v1.4.4 + libmatroska v1.7.1

Video
ID                                       : 1
Format                                   : AVC
Format/Info                              : Advanced Video Codec
Format profile                           : [email protected]
Format settings                          : CABAC / 4 Ref Frames
Format settings, CABAC                   : Yes
Format settings, Reference frames        : 4 frames
Codec ID                                 : V_MPEG4/ISO/AVC
Duration                                 : 42 min 59 s
Bit rate mode                            : Constant
Bit rate                                 : 5 557 kb/s
Nominal bit rate                         : 10 000 kb/s
Width                                    : 1 920 pixels
Height                                   : 1 080 pixels
Display aspect ratio                     : 16:9
Frame rate mode                          : Constant
Frame rate                               : 23.976 (24000/1001) FPS
Color space                              : YUV
Chroma subsampling                       : 4:2:0
Bit depth                                : 8 bits
Scan type                                : Progressive
Bits/(Pixel*Frame)                       : 0.112
Stream size                              : 1.67 GiB (90%)
Default                                  : Yes
Forced                                   : No
Color range                              : Limited
Color primaries                          : BT.709
Transfer characteristics                 : BT.709
Matrix coefficients                      : BT.709

Audio
ID                                       : 2
Format                                   : E-AC-3
Format/Info                              : Enhanced AC-3
Commercial name                          : Dolby Digital Plus
Codec ID                                 : A_EAC3
Duration                                 : 42 min 59 s
Bit rate mode                            : Constant
Bit rate                                 : 640 kb/s
Channel(s)                               : 6 channels
Channel layout                           : L R C LFE Ls Rs
Sampling rate                            : 48.0 kHz
Frame rate                               : 31.250 FPS (1536 SPF)
Compression mode                         : Lossy
Stream size                              : 197 MiB (10%)
Language                                 : English
Service kind                             : Complete Main
Default                                  : Yes
Forced                                   : No

Text #1
ID                                       : 3
Format                                   : UTF-8
Codec ID                                 : S_TEXT/UTF8
Codec ID/Info                            : UTF-8 Plain Text
Duration                                 : 42 min 9 s
Bit rate                                 : 72 b/s
Count of elements                        : 697
Stream size                              : 22.5 KiB (0%)
Language                                 : English
Default                                  : No
Forced                                   : No

Text #2
ID                                       : 4
Format                                   : UTF-8
Codec ID                                 : S_TEXT/UTF8
Codec ID/Info                            : UTF-8 Plain Text
Duration                                 : 42 min 18 s
Bit rate                                 : 78 b/s
Count of elements                        : 760
Stream size                              : 24.4 KiB (0%)
Language                                 : English
Default                                  : No
Forced                                   : No

Menu
00:00:00.000                             : en:Scene 1
00:01:09.000                             : en:Scene 2
00:02:49.000                             : en:Scene 3
00:03:48.000                             : en:Scene 4
00:04:32.000                             : en:Scene 5
00:05:03.000                             : en:Scene 6
00:05:35.000                             : en:Scene 7
00:06:31.000                             : en:Scene 8
00:07:24.000                             : en:Scene 9
00:07:58.000                             : en:Scene 10
00:08:29.000                             : en:Scene 11
00:09:30.000                             : en:Scene 12
00:10:13.000                             : en:Scene 13
00:11:48.000                             : en:Scene 14
00:12:29.000                             : en:Scene 15
00:13:23.000                             : en:Scene 16
00:14:20.000                             : en:Scene 17
00:15:34.000                             : en:Scene 18
00:17:00.000                             : en:Scene 19
00:18:23.000                             : en:Scene 20
00:19:15.000                             : en:Scene 21
00:20:08.000                             : en:Scene 22
00:21:42.000                             : en:Scene 23
00:22:37.000                             : en:Scene 24
00:23:43.000                             : en:Scene 25
00:24:12.000                             : en:Scene 26
00:24:47.000                             : en:Scene 27
00:25:50.000                             : en:Scene 28
00:26:20.000                             : en:Scene 29
00:27:27.000                             : en:Scene 30
00:29:07.000                             : en:Scene 31
00:29:30.000                             : en:Scene 32
00:30:37.000                             : en:Scene 33
00:31:37.000                             : en:Scene 34
00:32:56.000                             : en:Scene 35
00:33:31.000                             : en:Scene 36
00:34:41.000                             : en:Scene 37
00:35:37.000                             : en:Scene 38
00:36:04.000                             : en:Scene 39
00:37:32.000                             : en:Scene 40
00:38:38.000                             : en:Scene 41
00:39:17.000                             : en:Scene 42
00:39:53.000                             : en:Scene 43
00:41:03.000                             : en:Scene 44
00:41:29.000                             : en:Scene 45
00:42:17.000                             : en:Scene 46