General
Unique ID                                : 36854192151753719091340873967443045271 (0x1BB9DBF61CC2A05D77A9F3D96B8AEB97)
Complete name                            : 22060617.mkv
Format                                   : Matroska
Format version                           : Version 4
File size                                : 2.02 GiB
Duration                                 : 47 min 25 s
Overall bit rate mode                    : Variable
Overall bit rate                         : 6 085 kb/s
Writing application                      : mkvmerge v72.0.0 ('Minuano (Six-eight)') 64-bit
Writing library                          : libebml v1.4.4 + libmatroska v1.7.1

Video
ID                                       : 1
Format                                   : AVC
Format/Info                              : Advanced Video Codec
Format profile                           : [email protected]
Format settings                          : CABAC / 3 Ref Frames
Format settings, CABAC                   : Yes
Format settings, Reference frames        : 3 frames
Codec ID                                 : V_MPEG4/ISO/AVC
Duration                                 : 47 min 25 s
Bit rate mode                            : Variable
Bit rate                                 : 5 311 kb/s
Nominal bit rate                         : 5 800 kb/s
Maximum bit rate                         : 8 700 kb/s
Width                                    : 1 920 pixels
Height                                   : 1 080 pixels
Display aspect ratio                     : 16:9
Frame rate mode                          : Constant
Frame rate                               : 23.976 (24000/1001) FPS
Color space                              : YUV
Chroma subsampling                       : 4:2:0
Bit depth                                : 8 bits
Scan type                                : Progressive
Bits/(Pixel*Frame)                       : 0.107
Stream size                              : 1.76 GiB (87%)
Writing library                          : x264 core 148 r2727 7d026e8
Encoding settings                        : cabac=1 / ref=3 / deblock=1:0:0 / analyse=0x1:0x111 / me=umh / subme=10 / psy=1 / psy_rd=1.00:0.00 / mixed_ref=1 / me_range=24 / chroma_me=1 / trellis=2 / 8x8dct=0 / cqm=0 / deadzone=21,11 / fast_pskip=1 / chroma_qp_offset=-2 / threads=8 / lookahead_threads=1 / sliced_threads=0 / nr=0 / decimate=1 / interlaced=0 / bluray_compat=0 / stitchable=1 / constrained_intra=0 / bframes=2 / b_pyramid=0 / b_adapt=2 / b_bias=0 / direct=3 / weightb=1 / open_gop=0 / weightp=2 / keyint=250 / keyint_min=23 / scenecut=0 / intra_refresh=0 / rc_lookahead=48 / rc=2pass / mbtree=1 / bitrate=5800 / ratetol=1.0 / qcomp=0.50 / qpmin=6 / qpmax=51 / qpstep=4 / cplxblur=20.0 / qblur=0.5 / vbv_maxrate=8700 / vbv_bufsize=11600 / nal_hrd=vbr / filler=0 / ip_ratio=1.40 / aq=1:1.00
Language                                 : English
Default                                  : Yes
Forced                                   : No

Audio
ID                                       : 2
Format                                   : E-AC-3 JOC
Format/Info                              : Enhanced AC-3 with Joint Object Coding
Commercial name                          : Dolby Digital Plus with Dolby Atmos
Codec ID                                 : A_EAC3
Duration                                 : 47 min 25 s
Bit rate mode                            : Constant
Bit rate                                 : 768 kb/s
Channel(s)                               : 6 channels
Channel layout                           : L R C LFE Ls Rs
Sampling rate                            : 48.0 kHz
Frame rate                               : 31.250 FPS (1536 SPF)
Compression mode                         : Lossy
Stream size                              : 261 MiB (13%)
Language                                 : English
Service kind                             : Complete Main
Default                                  : Yes
Forced                                   : No
Complexity index                         : 16
Number of dynamic objects                : 15
Bed channel count                        : 1 channel
Bed channel configuration                : LFE

Text #1
ID                                       : 3
Format                                   : UTF-8
Codec ID                                 : S_TEXT/UTF8
Codec ID/Info                            : UTF-8 Plain Text
Duration                                 : 42 min 3 s
Bit rate                                 : 67 b/s
Count of elements                        : 575
Stream size                              : 20.8 KiB (0%)
Language                                 : English
Default                                  : No
Forced                                   : No

Text #2
ID                                       : 4
Format                                   : UTF-8
Codec ID                                 : S_TEXT/UTF8
Codec ID/Info                            : UTF-8 Plain Text
Duration                                 : 42 min 31 s
Bit rate                                 : 77 b/s
Count of elements                        : 694
Stream size                              : 24.1 KiB (0%)
Language                                 : English
Default                                  : No
Forced                                   : No

Text #3
ID                                       : 5
Format                                   : UTF-8
Codec ID                                 : S_TEXT/UTF8
Codec ID/Info                            : UTF-8 Plain Text
Duration                                 : 45 min 20 s
Bit rate                                 : 98 b/s
Count of elements                        : 580
Stream size                              : 32.7 KiB (0%)
Language                                 : Arabic
Default                                  : No
Forced                                   : No

Text #4
ID                                       : 6
Format                                   : UTF-8
Codec ID                                 : S_TEXT/UTF8
Codec ID/Info                            : UTF-8 Plain Text
Duration                                 : 45 min 20 s
Bit rate                                 : 54 b/s
Count of elements                        : 531
Stream size                              : 18.1 KiB (0%)
Language                                 : Catalan
Default                                  : No
Forced                                   : No

Text #5
ID                                       : 7
Format                                   : UTF-8
Codec ID                                 : S_TEXT/UTF8
Codec ID/Info                            : UTF-8 Plain Text
Duration                                 : 45 min 20 s
Bit rate                                 : 55 b/s
Count of elements                        : 551
Stream size                              : 18.4 KiB (0%)
Language                                 : Czech
Default                                  : No
Forced                                   : No

Text #6
ID                                       : 8
Format                                   : UTF-8
Codec ID                                 : S_TEXT/UTF8
Codec ID/Info                            : UTF-8 Plain Text
Duration                                 : 45 min 20 s
Bit rate                                 : 53 b/s
Count of elements                        : 511
Stream size                              : 17.9 KiB (0%)
Language                                 : Danish
Default                                  : No
Forced                                   : No

Text #7
ID                                       : 9
Format                                   : UTF-8
Codec ID                                 : S_TEXT/UTF8
Codec ID/Info                            : UTF-8 Plain Text
Duration                                 : 45 min 20 s
Bit rate                                 : 56 b/s
Count of elements                        : 547
Stream size                              : 18.9 KiB (0%)
Language                                 : German
Default                                  : No
Forced                                   : No

Text #8
ID                                       : 10
Format                                   : UTF-8
Codec ID                                 : S_TEXT/UTF8
Codec ID/Info                            : UTF-8 Plain Text
Duration                                 : 45 min 20 s
Bit rate                                 : 98 b/s
Count of elements                        : 532
Stream size                              : 32.6 KiB (0%)
Language                                 : Greek
Default                                  : No
Forced                                   : No

Text #9
ID                                       : 11
Format                                   : UTF-8
Codec ID                                 : S_TEXT/UTF8
Codec ID/Info                            : UTF-8 Plain Text
Duration                                 : 45 min 20 s
Bit rate                                 : 56 b/s
Count of elements                        : 545
Stream size                              : 18.7 KiB (0%)
Language                                 : Spanish
Default                                  : No
Forced                                   : No

Text #10
ID                                       : 12
Format                                   : UTF-8
Codec ID                                 : S_TEXT/UTF8
Codec ID/Info                            : UTF-8 Plain Text
Duration                                 : 45 min 3 s
Bit rate                                 : 56 b/s
Count of elements                        : 537
Stream size                              : 18.7 KiB (0%)
Language                                 : Spanish
Default                                  : No
Forced                                   : No

Text #11
ID                                       : 13
Format                                   : UTF-8
Codec ID                                 : S_TEXT/UTF8
Codec ID/Info                            : UTF-8 Plain Text
Duration                                 : 45 min 20 s
Bit rate                                 : 54 b/s
Count of elements                        : 560
Stream size                              : 18.0 KiB (0%)
Language                                 : Basque
Default                                  : No
Forced                                   : No

Text #12
ID                                       : 14
Format                                   : UTF-8
Codec ID                                 : S_TEXT/UTF8
Codec ID/Info                            : UTF-8 Plain Text
Duration                                 : 45 min 20 s
Bit rate                                 : 53 b/s
Count of elements                        : 462
Stream size                              : 17.6 KiB (0%)
Language                                 : Finnish
Default                                  : No
Forced                                   : No

Text #13
ID                                       : 15
Format                                   : UTF-8
Codec ID                                 : S_TEXT/UTF8
Codec ID/Info                            : UTF-8 Plain Text
Duration                                 : 45 min 21 s
Bit rate                                 : 60 b/s
Count of elements                        : 563
Stream size                              : 20.2 KiB (0%)
Language                                 : fil
Default                                  : No
Forced                                   : No

Text #14
ID                                       : 16
Format                                   : UTF-8
Codec ID                                 : S_TEXT/UTF8
Codec ID/Info                            : UTF-8 Plain Text
Duration                                 : 45 min 20 s
Bit rate                                 : 54 b/s
Count of elements                        : 510
Stream size                              : 18.0 KiB (0%)
Language                                 : French
Default                                  : No
Forced                                   : No

Text #15
ID                                       : 17
Format                                   : UTF-8
Codec ID                                 : S_TEXT/UTF8
Codec ID/Info                            : UTF-8 Plain Text
Duration                                 : 45 min 20 s
Bit rate                                 : 53 b/s
Count of elements                        : 565
Stream size                              : 17.8 KiB (0%)
Language                                 : Galician
Default                                  : No
Forced                                   : No

Text #16
ID                                       : 18
Format                                   : UTF-8
Codec ID                                 : S_TEXT/UTF8
Codec ID/Info                            : UTF-8 Plain Text
Duration                                 : 45 min 20 s
Bit rate                                 : 91 b/s
Count of elements                        : 567
Stream size                              : 30.4 KiB (0%)
Language                                 : Hebrew
Default                                  : No
Forced                                   : No

Text #17
ID                                       : 19
Format                                   : UTF-8
Codec ID                                 : S_TEXT/UTF8
Codec ID/Info                            : UTF-8 Plain Text
Duration                                 : 45 min 20 s
Bit rate                                 : 49 b/s
Count of elements                        : 549
Stream size                              : 16.4 KiB (0%)
Language                                 : Croatian
Default                                  : No
Forced                                   : No

Text #18
ID                                       : 20
Format                                   : UTF-8
Codec ID                                 : S_TEXT/UTF8
Codec ID/Info                            : UTF-8 Plain Text
Duration                                 : 45 min 18 s
Bit rate                                 : 55 b/s
Count of elements                        : 548
Stream size                              : 18.5 KiB (0%)
Language                                 : Hungarian
Default                                  : No
Forced                                   : No

Text #19
ID                                       : 21
Format                                   : UTF-8
Codec ID                                 : S_TEXT/UTF8
Codec ID/Info                            : UTF-8 Plain Text
Duration                                 : 45 min 20 s
Bit rate                                 : 56 b/s
Count of elements                        : 569
Stream size                              : 18.6 KiB (0%)
Language                                 : Indonesian
Default                                  : No
Forced                                   : No

Text #20
ID                                       : 22
Format                                   : UTF-8
Codec ID                                 : S_TEXT/UTF8
Codec ID/Info                            : UTF-8 Plain Text
Duration                                 : 45 min 18 s
Bit rate                                 : 54 b/s
Count of elements                        : 543
Stream size                              : 17.9 KiB (0%)
Language                                 : Italian
Default                                  : No
Forced                                   : No

Text #21
ID                                       : 23
Format                                   : UTF-8
Codec ID                                 : S_TEXT/UTF8
Codec ID/Info                            : UTF-8 Plain Text
Duration                                 : 45 min 20 s
Bit rate                                 : 52 b/s
Count of elements                        : 504
Stream size                              : 17.4 KiB (0%)
Language                                 : Japanese
Default                                  : No
Forced                                   : No

Text #22
ID                                       : 24
Format                                   : UTF-8
Codec ID                                 : S_TEXT/UTF8
Codec ID/Info                            : UTF-8 Plain Text
Duration                                 : 45 min 20 s
Bit rate                                 : 69 b/s
Count of elements                        : 587
Stream size                              : 23.1 KiB (0%)
Language                                 : Korean
Default                                  : No
Forced                                   : No

Text #23
ID                                       : 25
Format                                   : UTF-8
Codec ID                                 : S_TEXT/UTF8
Codec ID/Info                            : UTF-8 Plain Text
Duration                                 : 45 min 18 s
Bit rate                                 : 54 b/s
Count of elements                        : 547
Stream size                              : 18.1 KiB (0%)
Language                                 : Malay
Default                                  : No
Forced                                   : No

Text #24
ID                                       : 26
Format                                   : UTF-8
Codec ID                                 : S_TEXT/UTF8
Codec ID/Info                            : UTF-8 Plain Text
Duration                                 : 45 min 20 s
Bit rate                                 : 56 b/s
Count of elements                        : 430
Stream size                              : 18.6 KiB (0%)
Language                                 : Norwegian Bokmal
Default                                  : No
Forced                                   : No

Text #25
ID                                       : 27
Format                                   : UTF-8
Codec ID                                 : S_TEXT/UTF8
Codec ID/Info                            : UTF-8 Plain Text
Duration                                 : 45 min 20 s
Bit rate                                 : 53 b/s
Count of elements                        : 525
Stream size                              : 17.8 KiB (0%)
Language                                 : Dutch
Default                                  : No
Forced                                   : No

Text #26
ID                                       : 28
Format                                   : UTF-8
Codec ID                                 : S_TEXT/UTF8
Codec ID/Info                            : UTF-8 Plain Text
Duration                                 : 45 min 20 s
Bit rate                                 : 56 b/s
Count of elements                        : 531
Stream size                              : 18.7 KiB (0%)
Language                                 : Polish
Default                                  : No
Forced                                   : No

Text #27
ID                                       : 29
Format                                   : UTF-8
Codec ID                                 : S_TEXT/UTF8
Codec ID/Info                            : UTF-8 Plain Text
Duration                                 : 45 min 20 s
Bit rate                                 : 56 b/s
Count of elements                        : 558
Stream size                              : 18.7 KiB (0%)
Language                                 : Portuguese
Default                                  : No
Forced                                   : No

Text #28
ID                                       : 30
Format                                   : UTF-8
Codec ID                                 : S_TEXT/UTF8
Codec ID/Info                            : UTF-8 Plain Text
Duration                                 : 45 min 20 s
Bit rate                                 : 61 b/s
Count of elements                        : 565
Stream size                              : 20.5 KiB (0%)
Language                                 : Portuguese
Default                                  : No
Forced                                   : No

Text #29
ID                                       : 31
Format                                   : UTF-8
Codec ID                                 : S_TEXT/UTF8
Codec ID/Info                            : UTF-8 Plain Text
Duration                                 : 45 min 20 s
Bit rate                                 : 62 b/s
Count of elements                        : 505
Stream size                              : 20.8 KiB (0%)
Language                                 : Romanian
Default                                  : No
Forced                                   : No

Text #30
ID                                       : 32
Format                                   : UTF-8
Codec ID                                 : S_TEXT/UTF8
Codec ID/Info                            : UTF-8 Plain Text
Duration                                 : 45 min 20 s
Bit rate                                 : 98 b/s
Count of elements                        : 539
Stream size                              : 32.8 KiB (0%)
Language                                 : Russian
Default                                  : No
Forced                                   : No

Text #31
ID                                       : 33
Format                                   : UTF-8
Codec ID                                 : S_TEXT/UTF8
Codec ID/Info                            : UTF-8 Plain Text
Duration                                 : 45 min 20 s
Bit rate                                 : 52 b/s
Count of elements                        : 497
Stream size                              : 17.6 KiB (0%)
Language                                 : Swedish
Default                                  : No
Forced                                   : No

Text #32
ID                                       : 34
Format                                   : UTF-8
Codec ID                                 : S_TEXT/UTF8
Codec ID/Info                            : UTF-8 Plain Text
Duration                                 : 45 min 20 s
Bit rate                                 : 154 b/s
Count of elements                        : 568
Stream size                              : 51.2 KiB (0%)
Language                                 : Thai
Default                                  : No
Forced                                   : No

Text #33
ID                                       : 35
Format                                   : UTF-8
Codec ID                                 : S_TEXT/UTF8
Codec ID/Info                            : UTF-8 Plain Text
Duration                                 : 45 min 20 s
Bit rate                                 : 56 b/s
Count of elements                        : 465
Stream size                              : 18.7 KiB (0%)
Language                                 : Turkish
Default                                  : No
Forced                                   : No

Text #34
ID                                       : 36
Format                                   : UTF-8
Codec ID                                 : S_TEXT/UTF8
Codec ID/Info                            : UTF-8 Plain Text
Duration                                 : 45 min 21 s
Bit rate                                 : 94 b/s
Count of elements                        : 547
Stream size                              : 31.4 KiB (0%)
Language                                 : Ukrainian
Default                                  : No
Forced                                   : No

Text #35
ID                                       : 37
Format                                   : UTF-8
Codec ID                                 : S_TEXT/UTF8
Codec ID/Info                            : UTF-8 Plain Text
Duration                                 : 45 min 20 s
Bit rate                                 : 81 b/s
Count of elements                        : 511
Stream size                              : 27.2 KiB (0%)
Language                                 : Vietnamese
Default                                  : No
Forced                                   : No

Text #36
ID                                       : 38
Format                                   : UTF-8
Codec ID                                 : S_TEXT/UTF8
Codec ID/Info                            : UTF-8 Plain Text
Duration                                 : 45 min 20 s
Bit rate                                 : 61 b/s
Count of elements                        : 568
Stream size                              : 20.5 KiB (0%)
Language                                 : Chinese
Default                                  : No
Forced                                   : No

Text #37
ID                                       : 39
Format                                   : UTF-8
Codec ID                                 : S_TEXT/UTF8
Codec ID/Info                            : UTF-8 Plain Text
Duration                                 : 45 min 20 s
Bit rate                                 : 57 b/s
Count of elements                        : 609
Stream size                              : 19.1 KiB (0%)
Language                                 : Chinese
Default                                  : No
Forced                                   : No

Menu
00:42:36.000                             : en:End Credits