General
Unique ID                                : 90885917268703907343758730848297018324 (0x445FFDAF7EB24B457D2FE20A0BBBE3D4)
Complete name                            : 22060611.mkv
Format                                   : Matroska
Format version                           : Version 4
File size                                : 2.60 GiB
Duration                                 : 59 min 28 s
Overall bit rate mode                    : Variable
Overall bit rate                         : 6 265 kb/s
Writing application                      : mkvmerge v72.0.0 ('Minuano (Six-eight)') 64-bit
Writing library                          : libebml v1.4.4 + libmatroska v1.7.1

Video
ID                                       : 1
Format                                   : AVC
Format/Info                              : Advanced Video Codec
Format profile                           : [email protected]
Format settings                          : CABAC / 3 Ref Frames
Format settings, CABAC                   : Yes
Format settings, Reference frames        : 3 frames
Codec ID                                 : V_MPEG4/ISO/AVC
Duration                                 : 59 min 28 s
Bit rate mode                            : Variable
Bit rate                                 : 5 491 kb/s
Nominal bit rate                         : 5 800 kb/s
Maximum bit rate                         : 8 700 kb/s
Width                                    : 1 920 pixels
Height                                   : 1 080 pixels
Display aspect ratio                     : 16:9
Frame rate mode                          : Constant
Frame rate                               : 23.976 (24000/1001) FPS
Color space                              : YUV
Chroma subsampling                       : 4:2:0
Bit depth                                : 8 bits
Scan type                                : Progressive
Bits/(Pixel*Frame)                       : 0.110
Stream size                              : 2.28 GiB (88%)
Writing library                          : x264 core 148 r2727 7d026e8
Encoding settings                        : cabac=1 / ref=3 / deblock=1:0:0 / analyse=0x1:0x111 / me=umh / subme=10 / psy=1 / psy_rd=1.00:0.00 / mixed_ref=1 / me_range=24 / chroma_me=1 / trellis=2 / 8x8dct=0 / cqm=0 / deadzone=21,11 / fast_pskip=1 / chroma_qp_offset=-2 / threads=8 / lookahead_threads=1 / sliced_threads=0 / nr=0 / decimate=1 / interlaced=0 / bluray_compat=0 / stitchable=1 / constrained_intra=0 / bframes=2 / b_pyramid=0 / b_adapt=2 / b_bias=0 / direct=3 / weightb=1 / open_gop=0 / weightp=2 / keyint=250 / keyint_min=23 / scenecut=0 / intra_refresh=0 / rc_lookahead=48 / rc=2pass / mbtree=1 / bitrate=5800 / ratetol=1.0 / qcomp=0.50 / qpmin=6 / qpmax=51 / qpstep=4 / cplxblur=20.0 / qblur=0.5 / vbv_maxrate=8700 / vbv_bufsize=11600 / nal_hrd=vbr / filler=0 / ip_ratio=1.40 / aq=1:1.00
Language                                 : English
Default                                  : Yes
Forced                                   : No

Audio
ID                                       : 2
Format                                   : E-AC-3 JOC
Format/Info                              : Enhanced AC-3 with Joint Object Coding
Commercial name                          : Dolby Digital Plus with Dolby Atmos
Codec ID                                 : A_EAC3
Duration                                 : 59 min 28 s
Bit rate mode                            : Constant
Bit rate                                 : 768 kb/s
Channel(s)                               : 6 channels
Channel layout                           : L R C LFE Ls Rs
Sampling rate                            : 48.0 kHz
Frame rate                               : 31.250 FPS (1536 SPF)
Compression mode                         : Lossy
Stream size                              : 327 MiB (12%)
Language                                 : English
Service kind                             : Complete Main
Default                                  : Yes
Forced                                   : No
Complexity index                         : 16
Number of dynamic objects                : 15
Bed channel count                        : 1 channel
Bed channel configuration                : LFE

Text #1
ID                                       : 3
Format                                   : UTF-8
Codec ID                                 : S_TEXT/UTF8
Codec ID/Info                            : UTF-8 Plain Text
Duration                                 : 54 min 45 s
Bit rate                                 : 64 b/s
Count of elements                        : 711
Stream size                              : 25.7 KiB (0%)
Language                                 : English
Default                                  : No
Forced                                   : No

Text #2
ID                                       : 4
Format                                   : UTF-8
Codec ID                                 : S_TEXT/UTF8
Codec ID/Info                            : UTF-8 Plain Text
Duration                                 : 55 min 8 s
Bit rate                                 : 74 b/s
Count of elements                        : 881
Stream size                              : 30.2 KiB (0%)
Language                                 : English
Default                                  : No
Forced                                   : No

Text #3
ID                                       : 5
Format                                   : UTF-8
Codec ID                                 : S_TEXT/UTF8
Codec ID/Info                            : UTF-8 Plain Text
Duration                                 : 56 min 59 s
Bit rate                                 : 101 b/s
Count of elements                        : 734
Stream size                              : 42.3 KiB (0%)
Language                                 : Arabic
Default                                  : No
Forced                                   : No

Text #4
ID                                       : 6
Format                                   : UTF-8
Codec ID                                 : S_TEXT/UTF8
Codec ID/Info                            : UTF-8 Plain Text
Duration                                 : 55 min 39 s
Bit rate                                 : 56 b/s
Count of elements                        : 680
Stream size                              : 22.8 KiB (0%)
Language                                 : Catalan
Default                                  : No
Forced                                   : No

Text #5
ID                                       : 7
Format                                   : UTF-8
Codec ID                                 : S_TEXT/UTF8
Codec ID/Info                            : UTF-8 Plain Text
Duration                                 : 56 min 59 s
Bit rate                                 : 57 b/s
Count of elements                        : 703
Stream size                              : 24.1 KiB (0%)
Language                                 : Czech
Default                                  : No
Forced                                   : No

Text #6
ID                                       : 8
Format                                   : UTF-8
Codec ID                                 : S_TEXT/UTF8
Codec ID/Info                            : UTF-8 Plain Text
Duration                                 : 56 min 59 s
Bit rate                                 : 56 b/s
Count of elements                        : 684
Stream size                              : 23.7 KiB (0%)
Language                                 : Danish
Default                                  : No
Forced                                   : No

Text #7
ID                                       : 9
Format                                   : UTF-8
Codec ID                                 : S_TEXT/UTF8
Codec ID/Info                            : UTF-8 Plain Text
Duration                                 : 56 min 57 s
Bit rate                                 : 59 b/s
Count of elements                        : 690
Stream size                              : 24.8 KiB (0%)
Language                                 : German
Default                                  : No
Forced                                   : No

Text #8
ID                                       : 10
Format                                   : UTF-8
Codec ID                                 : S_TEXT/UTF8
Codec ID/Info                            : UTF-8 Plain Text
Duration                                 : 56 min 59 s
Bit rate                                 : 99 b/s
Count of elements                        : 688
Stream size                              : 41.7 KiB (0%)
Language                                 : Greek
Default                                  : No
Forced                                   : No

Text #9
ID                                       : 11
Format                                   : UTF-8
Codec ID                                 : S_TEXT/UTF8
Codec ID/Info                            : UTF-8 Plain Text
Duration                                 : 56 min 59 s
Bit rate                                 : 60 b/s
Count of elements                        : 713
Stream size                              : 25.1 KiB (0%)
Language                                 : Spanish
Default                                  : No
Forced                                   : No

Text #10
ID                                       : 12
Format                                   : UTF-8
Codec ID                                 : S_TEXT/UTF8
Codec ID/Info                            : UTF-8 Plain Text
Duration                                 : 56 min 57 s
Bit rate                                 : 57 b/s
Count of elements                        : 687
Stream size                              : 23.9 KiB (0%)
Language                                 : Spanish
Default                                  : No
Forced                                   : No

Text #11
ID                                       : 13
Format                                   : UTF-8
Codec ID                                 : S_TEXT/UTF8
Codec ID/Info                            : UTF-8 Plain Text
Duration                                 : 55 min 39 s
Bit rate                                 : 55 b/s
Count of elements                        : 687
Stream size                              : 22.7 KiB (0%)
Language                                 : Basque
Default                                  : No
Forced                                   : No

Text #12
ID                                       : 14
Format                                   : UTF-8
Codec ID                                 : S_TEXT/UTF8
Codec ID/Info                            : UTF-8 Plain Text
Duration                                 : 56 min 59 s
Bit rate                                 : 53 b/s
Count of elements                        : 649
Stream size                              : 22.4 KiB (0%)
Language                                 : Finnish
Default                                  : No
Forced                                   : No

Text #13
ID                                       : 15
Format                                   : UTF-8
Codec ID                                 : S_TEXT/UTF8
Codec ID/Info                            : UTF-8 Plain Text
Duration                                 : 56 min 59 s
Bit rate                                 : 61 b/s
Count of elements                        : 716
Stream size                              : 25.9 KiB (0%)
Language                                 : fil
Default                                  : No
Forced                                   : No

Text #14
ID                                       : 16
Format                                   : UTF-8
Codec ID                                 : S_TEXT/UTF8
Codec ID/Info                            : UTF-8 Plain Text
Duration                                 : 55 min 36 s
Bit rate                                 : 56 b/s
Count of elements                        : 638
Stream size                              : 23.1 KiB (0%)
Language                                 : French
Default                                  : No
Forced                                   : No

Text #15
ID                                       : 17
Format                                   : UTF-8
Codec ID                                 : S_TEXT/UTF8
Codec ID/Info                            : UTF-8 Plain Text
Duration                                 : 56 min 59 s
Bit rate                                 : 53 b/s
Count of elements                        : 722
Stream size                              : 22.5 KiB (0%)
Language                                 : Galician
Default                                  : No
Forced                                   : No

Text #16
ID                                       : 18
Format                                   : UTF-8
Codec ID                                 : S_TEXT/UTF8
Codec ID/Info                            : UTF-8 Plain Text
Duration                                 : 56 min 59 s
Bit rate                                 : 94 b/s
Count of elements                        : 726
Stream size                              : 39.5 KiB (0%)
Language                                 : Hebrew
Default                                  : No
Forced                                   : No

Text #17
ID                                       : 19
Format                                   : UTF-8
Codec ID                                 : S_TEXT/UTF8
Codec ID/Info                            : UTF-8 Plain Text
Duration                                 : 57 min 1 s
Bit rate                                 : 52 b/s
Count of elements                        : 717
Stream size                              : 22.0 KiB (0%)
Language                                 : Croatian
Default                                  : No
Forced                                   : No

Text #18
ID                                       : 20
Format                                   : UTF-8
Codec ID                                 : S_TEXT/UTF8
Codec ID/Info                            : UTF-8 Plain Text
Duration                                 : 56 min 59 s
Bit rate                                 : 58 b/s
Count of elements                        : 703
Stream size                              : 24.3 KiB (0%)
Language                                 : Hungarian
Default                                  : No
Forced                                   : No

Text #19
ID                                       : 21
Format                                   : UTF-8
Codec ID                                 : S_TEXT/UTF8
Codec ID/Info                            : UTF-8 Plain Text
Duration                                 : 56 min 59 s
Bit rate                                 : 55 b/s
Count of elements                        : 720
Stream size                              : 23.3 KiB (0%)
Language                                 : Indonesian
Default                                  : No
Forced                                   : No

Text #20
ID                                       : 22
Format                                   : UTF-8
Codec ID                                 : S_TEXT/UTF8
Codec ID/Info                            : UTF-8 Plain Text
Duration                                 : 56 min 56 s
Bit rate                                 : 56 b/s
Count of elements                        : 694
Stream size                              : 23.4 KiB (0%)
Language                                 : Italian
Default                                  : No
Forced                                   : No

Text #21
ID                                       : 23
Format                                   : UTF-8
Codec ID                                 : S_TEXT/UTF8
Codec ID/Info                            : UTF-8 Plain Text
Duration                                 : 56 min 59 s
Bit rate                                 : 54 b/s
Count of elements                        : 653
Stream size                              : 22.7 KiB (0%)
Language                                 : Japanese
Default                                  : No
Forced                                   : No

Text #22
ID                                       : 24
Format                                   : UTF-8
Codec ID                                 : S_TEXT/UTF8
Codec ID/Info                            : UTF-8 Plain Text
Duration                                 : 56 min 57 s
Bit rate                                 : 70 b/s
Count of elements                        : 742
Stream size                              : 29.2 KiB (0%)
Language                                 : Korean
Default                                  : No
Forced                                   : No

Text #23
ID                                       : 25
Format                                   : UTF-8
Codec ID                                 : S_TEXT/UTF8
Codec ID/Info                            : UTF-8 Plain Text
Duration                                 : 56 min 56 s
Bit rate                                 : 55 b/s
Count of elements                        : 707
Stream size                              : 23.3 KiB (0%)
Language                                 : Malay
Default                                  : No
Forced                                   : No

Text #24
ID                                       : 26
Format                                   : UTF-8
Codec ID                                 : S_TEXT/UTF8
Codec ID/Info                            : UTF-8 Plain Text
Duration                                 : 56 min 57 s
Bit rate                                 : 58 b/s
Count of elements                        : 565
Stream size                              : 24.4 KiB (0%)
Language                                 : Norwegian Bokmal
Default                                  : No
Forced                                   : No

Text #25
ID                                       : 27
Format                                   : UTF-8
Codec ID                                 : S_TEXT/UTF8
Codec ID/Info                            : UTF-8 Plain Text
Duration                                 : 56 min 59 s
Bit rate                                 : 55 b/s
Count of elements                        : 657
Stream size                              : 23.3 KiB (0%)
Language                                 : Dutch
Default                                  : No
Forced                                   : No

Text #26
ID                                       : 28
Format                                   : UTF-8
Codec ID                                 : S_TEXT/UTF8
Codec ID/Info                            : UTF-8 Plain Text
Duration                                 : 56 min 59 s
Bit rate                                 : 58 b/s
Count of elements                        : 694
Stream size                              : 24.4 KiB (0%)
Language                                 : Polish
Default                                  : No
Forced                                   : No

Text #27
ID                                       : 29
Format                                   : UTF-8
Codec ID                                 : S_TEXT/UTF8
Codec ID/Info                            : UTF-8 Plain Text
Duration                                 : 56 min 59 s
Bit rate                                 : 57 b/s
Count of elements                        : 720
Stream size                              : 23.9 KiB (0%)
Language                                 : Portuguese
Default                                  : No
Forced                                   : No

Text #28
ID                                       : 30
Format                                   : UTF-8
Codec ID                                 : S_TEXT/UTF8
Codec ID/Info                            : UTF-8 Plain Text
Duration                                 : 56 min 59 s
Bit rate                                 : 62 b/s
Count of elements                        : 716
Stream size                              : 25.9 KiB (0%)
Language                                 : Portuguese
Default                                  : No
Forced                                   : No

Text #29
ID                                       : 31
Format                                   : UTF-8
Codec ID                                 : S_TEXT/UTF8
Codec ID/Info                            : UTF-8 Plain Text
Duration                                 : 56 min 59 s
Bit rate                                 : 64 b/s
Count of elements                        : 646
Stream size                              : 27.1 KiB (0%)
Language                                 : Romanian
Default                                  : No
Forced                                   : No

Text #30
ID                                       : 32
Format                                   : UTF-8
Codec ID                                 : S_TEXT/UTF8
Codec ID/Info                            : UTF-8 Plain Text
Duration                                 : 56 min 59 s
Bit rate                                 : 100 b/s
Count of elements                        : 698
Stream size                              : 42.1 KiB (0%)
Language                                 : Russian
Default                                  : No
Forced                                   : No

Text #31
ID                                       : 33
Format                                   : UTF-8
Codec ID                                 : S_TEXT/UTF8
Codec ID/Info                            : UTF-8 Plain Text
Duration                                 : 56 min 57 s
Bit rate                                 : 54 b/s
Count of elements                        : 640
Stream size                              : 22.8 KiB (0%)
Language                                 : Swedish
Default                                  : No
Forced                                   : No

Text #32
ID                                       : 34
Format                                   : UTF-8
Codec ID                                 : S_TEXT/UTF8
Codec ID/Info                            : UTF-8 Plain Text
Duration                                 : 55 min 38 s
Bit rate                                 : 160 b/s
Count of elements                        : 725
Stream size                              : 65.3 KiB (0%)
Language                                 : Thai
Default                                  : No
Forced                                   : No

Text #33
ID                                       : 35
Format                                   : UTF-8
Codec ID                                 : S_TEXT/UTF8
Codec ID/Info                            : UTF-8 Plain Text
Duration                                 : 56 min 59 s
Bit rate                                 : 57 b/s
Count of elements                        : 588
Stream size                              : 23.9 KiB (0%)
Language                                 : Turkish
Default                                  : No
Forced                                   : No

Text #34
ID                                       : 36
Format                                   : UTF-8
Codec ID                                 : S_TEXT/UTF8
Codec ID/Info                            : UTF-8 Plain Text
Duration                                 : 56 min 59 s
Bit rate                                 : 95 b/s
Count of elements                        : 712
Stream size                              : 40.1 KiB (0%)
Language                                 : Ukrainian
Default                                  : No
Forced                                   : No

Text #35
ID                                       : 37
Format                                   : UTF-8
Codec ID                                 : S_TEXT/UTF8
Codec ID/Info                            : UTF-8 Plain Text
Duration                                 : 56 min 59 s
Bit rate                                 : 82 b/s
Count of elements                        : 661
Stream size                              : 34.4 KiB (0%)
Language                                 : Vietnamese
Default                                  : No
Forced                                   : No

Text #36
ID                                       : 38
Format                                   : UTF-8
Codec ID                                 : S_TEXT/UTF8
Codec ID/Info                            : UTF-8 Plain Text
Duration                                 : 56 min 59 s
Bit rate                                 : 61 b/s
Count of elements                        : 725
Stream size                              : 25.8 KiB (0%)
Language                                 : Chinese
Default                                  : No
Forced                                   : No

Text #37
ID                                       : 39
Format                                   : UTF-8
Codec ID                                 : S_TEXT/UTF8
Codec ID/Info                            : UTF-8 Plain Text
Duration                                 : 56 min 57 s
Bit rate                                 : 57 b/s
Count of elements                        : 758
Stream size                              : 23.9 KiB (0%)
Language                                 : Chinese
Default                                  : No
Forced                                   : No

Menu
00:55:13.000                             : en:End Credits