General
Unique ID                                : 308006553616078591605129895685599761689 (0xE7B7E78B317ED9C33F45E1452EBB9519)
Complete name                            : 22060507.mkv
Format                                   : Matroska
Format version                           : Version 4
File size                                : 1.38 GiB
Duration                                 : 54 min 46 s
Overall bit rate                         : 3 598 kb/s
Writing application                      : mkvmerge v72.0.0 ('Minuano (Six-eight)') 64-bit
Writing library                          : libebml v1.4.4 + libmatroska v1.7.1

Video
ID                                       : 1
Format                                   : AVC
Format/Info                              : Advanced Video Codec
Format profile                           : [email protected]
Format settings                          : CABAC / 4 Ref Frames
Format settings, CABAC                   : Yes
Format settings, Reference frames        : 4 frames
Codec ID                                 : V_MPEG4/ISO/AVC
Duration                                 : 54 min 46 s
Bit rate mode                            : Constant
Bit rate                                 : 2 950 kb/s
Nominal bit rate                         : 4 000 kb/s
Width                                    : 1 280 pixels
Height                                   : 640 pixels
Display aspect ratio                     : 2.000
Frame rate mode                          : Constant
Frame rate                               : 24.000 FPS
Color space                              : YUV
Chroma subsampling                       : 4:2:0
Bit depth                                : 8 bits
Scan type                                : Progressive
Bits/(Pixel*Frame)                       : 0.150
Stream size                              : 1.13 GiB (82%)
Default                                  : Yes
Forced                                   : No
Color range                              : Limited
Color primaries                          : BT.709
Transfer characteristics                 : BT.709
Matrix coefficients                      : BT.709

Audio
ID                                       : 2
Format                                   : E-AC-3
Format/Info                              : Enhanced AC-3
Commercial name                          : Dolby Digital Plus
Codec ID                                 : A_EAC3
Duration                                 : 54 min 46 s
Bit rate mode                            : Constant
Bit rate                                 : 640 kb/s
Channel(s)                               : 6 channels
Channel layout                           : L R C LFE Ls Rs
Sampling rate                            : 48.0 kHz
Frame rate                               : 31.250 FPS (1536 SPF)
Compression mode                         : Lossy
Stream size                              : 251 MiB (18%)
Language                                 : English
Service kind                             : Complete Main
Default                                  : Yes
Forced                                   : No

Text #1
ID                                       : 3
Format                                   : UTF-8
Codec ID                                 : S_TEXT/UTF8
Codec ID/Info                            : UTF-8 Plain Text
Duration                                 : 21 min 39 s
Bit rate                                 : 6 b/s
Count of elements                        : 33
Stream size                              : 1.08 KiB (0%)
Language                                 : English
Default                                  : Yes
Forced                                   : Yes

Text #2
ID                                       : 4
Format                                   : UTF-8
Codec ID                                 : S_TEXT/UTF8
Codec ID/Info                            : UTF-8 Plain Text
Duration                                 : 49 min 53 s
Bit rate                                 : 72 b/s
Count of elements                        : 846
Stream size                              : 26.5 KiB (0%)
Language                                 : English
Default                                  : No
Forced                                   : No

Text #3
ID                                       : 5
Format                                   : UTF-8
Codec ID                                 : S_TEXT/UTF8
Codec ID/Info                            : UTF-8 Plain Text
Duration                                 : 51 min 33 s
Bit rate                                 : 75 b/s
Count of elements                        : 923
Stream size                              : 28.6 KiB (0%)
Language                                 : English
Default                                  : No
Forced                                   : No

Text #4
ID                                       : 6
Format                                   : UTF-8
Codec ID                                 : S_TEXT/UTF8
Codec ID/Info                            : UTF-8 Plain Text
Duration                                 : 51 min 40 s
Bit rate                                 : 105 b/s
Count of elements                        : 699
Stream size                              : 39.8 KiB (0%)
Language                                 : Arabic
Default                                  : No
Forced                                   : No

Text #5
ID                                       : 7
Format                                   : UTF-8
Codec ID                                 : S_TEXT/UTF8
Codec ID/Info                            : UTF-8 Plain Text
Duration                                 : 51 min 40 s
Bit rate                                 : 60 b/s
Count of elements                        : 699
Stream size                              : 22.9 KiB (0%)
Language                                 : Catalan
Default                                  : No
Forced                                   : No

Text #6
ID                                       : 8
Format                                   : UTF-8
Codec ID                                 : S_TEXT/UTF8
Codec ID/Info                            : UTF-8 Plain Text
Duration                                 : 51 min 40 s
Bit rate                                 : 64 b/s
Count of elements                        : 698
Stream size                              : 24.3 KiB (0%)
Language                                 : Czech
Default                                  : No
Forced                                   : No

Text #7
ID                                       : 9
Format                                   : UTF-8
Codec ID                                 : S_TEXT/UTF8
Codec ID/Info                            : UTF-8 Plain Text
Duration                                 : 51 min 40 s
Bit rate                                 : 57 b/s
Count of elements                        : 698
Stream size                              : 22.0 KiB (0%)
Language                                 : Danish
Default                                  : No
Forced                                   : No

Text #8
ID                                       : 10
Format                                   : UTF-8
Codec ID                                 : S_TEXT/UTF8
Codec ID/Info                            : UTF-8 Plain Text
Duration                                 : 51 min 40 s
Bit rate                                 : 64 b/s
Count of elements                        : 698
Stream size                              : 24.4 KiB (0%)
Language                                 : German
Default                                  : No
Forced                                   : No

Text #9
ID                                       : 11
Format                                   : UTF-8
Codec ID                                 : S_TEXT/UTF8
Codec ID/Info                            : UTF-8 Plain Text
Duration                                 : 51 min 40 s
Bit rate                                 : 117 b/s
Count of elements                        : 697
Stream size                              : 44.5 KiB (0%)
Language                                 : Greek
Default                                  : No
Forced                                   : No

Text #10
ID                                       : 12
Format                                   : UTF-8
Codec ID                                 : S_TEXT/UTF8
Codec ID/Info                            : UTF-8 Plain Text
Duration                                 : 51 min 40 s
Bit rate                                 : 61 b/s
Count of elements                        : 699
Stream size                              : 23.2 KiB (0%)
Language                                 : Spanish
Default                                  : No
Forced                                   : No

Text #11
ID                                       : 13
Format                                   : UTF-8
Codec ID                                 : S_TEXT/UTF8
Codec ID/Info                            : UTF-8 Plain Text
Duration                                 : 51 min 40 s
Bit rate                                 : 59 b/s
Count of elements                        : 697
Stream size                              : 22.5 KiB (0%)
Language                                 : Spanish
Default                                  : No
Forced                                   : No

Text #12
ID                                       : 14
Format                                   : UTF-8
Codec ID                                 : S_TEXT/UTF8
Codec ID/Info                            : UTF-8 Plain Text
Duration                                 : 51 min 40 s
Bit rate                                 : 54 b/s
Count of elements                        : 698
Stream size                              : 20.8 KiB (0%)
Language                                 : Basque
Default                                  : No
Forced                                   : No

Text #13
ID                                       : 15
Format                                   : UTF-8
Codec ID                                 : S_TEXT/UTF8
Codec ID/Info                            : UTF-8 Plain Text
Duration                                 : 51 min 40 s
Bit rate                                 : 51 b/s
Count of elements                        : 698
Stream size                              : 19.7 KiB (0%)
Language                                 : Finnish
Default                                  : No
Forced                                   : No

Text #14
ID                                       : 16
Format                                   : UTF-8
Codec ID                                 : S_TEXT/UTF8
Codec ID/Info                            : UTF-8 Plain Text
Duration                                 : 51 min 40 s
Bit rate                                 : 61 b/s
Count of elements                        : 695
Stream size                              : 23.1 KiB (0%)
Language                                 : fil
Default                                  : No
Forced                                   : No

Text #15
ID                                       : 17
Format                                   : UTF-8
Codec ID                                 : S_TEXT/UTF8
Codec ID/Info                            : UTF-8 Plain Text
Duration                                 : 51 min 40 s
Bit rate                                 : 62 b/s
Count of elements                        : 699
Stream size                              : 23.5 KiB (0%)
Language                                 : French
Default                                  : No
Forced                                   : No

Text #16
ID                                       : 18
Format                                   : UTF-8
Codec ID                                 : S_TEXT/UTF8
Codec ID/Info                            : UTF-8 Plain Text
Duration                                 : 49 min 54 s
Bit rate                                 : 67 b/s
Count of elements                        : 732
Stream size                              : 24.8 KiB (0%)
Language                                 : French
Default                                  : No
Forced                                   : No

Text #17
ID                                       : 19
Format                                   : UTF-8
Codec ID                                 : S_TEXT/UTF8
Codec ID/Info                            : UTF-8 Plain Text
Duration                                 : 51 min 40 s
Bit rate                                 : 55 b/s
Count of elements                        : 697
Stream size                              : 20.8 KiB (0%)
Language                                 : Galician
Default                                  : No
Forced                                   : No

Text #18
ID                                       : 20
Format                                   : UTF-8
Codec ID                                 : S_TEXT/UTF8
Codec ID/Info                            : UTF-8 Plain Text
Duration                                 : 51 min 40 s
Bit rate                                 : 99 b/s
Count of elements                        : 699
Stream size                              : 37.6 KiB (0%)
Language                                 : Hebrew
Default                                  : No
Forced                                   : No

Text #19
ID                                       : 21
Format                                   : UTF-8
Codec ID                                 : S_TEXT/UTF8
Codec ID/Info                            : UTF-8 Plain Text
Duration                                 : 51 min 40 s
Bit rate                                 : 147 b/s
Count of elements                        : 699
Stream size                              : 55.7 KiB (0%)
Language                                 : Hindi
Default                                  : No
Forced                                   : No

Text #20
ID                                       : 22
Format                                   : UTF-8
Codec ID                                 : S_TEXT/UTF8
Codec ID/Info                            : UTF-8 Plain Text
Duration                                 : 51 min 40 s
Bit rate                                 : 64 b/s
Count of elements                        : 699
Stream size                              : 24.6 KiB (0%)
Language                                 : Hungarian
Default                                  : No
Forced                                   : No

Text #21
ID                                       : 23
Format                                   : UTF-8
Codec ID                                 : S_TEXT/UTF8
Codec ID/Info                            : UTF-8 Plain Text
Duration                                 : 51 min 40 s
Bit rate                                 : 58 b/s
Count of elements                        : 698
Stream size                              : 22.0 KiB (0%)
Language                                 : Indonesian
Default                                  : No
Forced                                   : No

Text #22
ID                                       : 24
Format                                   : UTF-8
Codec ID                                 : S_TEXT/UTF8
Codec ID/Info                            : UTF-8 Plain Text
Duration                                 : 51 min 40 s
Bit rate                                 : 61 b/s
Count of elements                        : 699
Stream size                              : 23.4 KiB (0%)
Language                                 : Italian
Default                                  : No
Forced                                   : No

Text #23
ID                                       : 25
Format                                   : UTF-8
Codec ID                                 : S_TEXT/UTF8
Codec ID/Info                            : UTF-8 Plain Text
Duration                                 : 51 min 40 s
Bit rate                                 : 51 b/s
Count of elements                        : 659
Stream size                              : 19.5 KiB (0%)
Language                                 : Japanese
Default                                  : No
Forced                                   : No

Text #24
ID                                       : 26
Format                                   : UTF-8
Codec ID                                 : S_TEXT/UTF8
Codec ID/Info                            : UTF-8 Plain Text
Duration                                 : 51 min 40 s
Bit rate                                 : 157 b/s
Count of elements                        : 699
Stream size                              : 59.8 KiB (0%)
Language                                 : Kannada
Default                                  : No
Forced                                   : No

Text #25
ID                                       : 27
Format                                   : UTF-8
Codec ID                                 : S_TEXT/UTF8
Codec ID/Info                            : UTF-8 Plain Text
Duration                                 : 51 min 40 s
Bit rate                                 : 65 b/s
Count of elements                        : 698
Stream size                              : 24.6 KiB (0%)
Language                                 : Korean
Default                                  : No
Forced                                   : No

Text #26
ID                                       : 28
Format                                   : UTF-8
Codec ID                                 : S_TEXT/UTF8
Codec ID/Info                            : UTF-8 Plain Text
Duration                                 : 51 min 40 s
Bit rate                                 : 182 b/s
Count of elements                        : 698
Stream size                              : 69.0 KiB (0%)
Language                                 : Malayalam
Default                                  : No
Forced                                   : No

Text #27
ID                                       : 29
Format                                   : UTF-8
Codec ID                                 : S_TEXT/UTF8
Codec ID/Info                            : UTF-8 Plain Text
Duration                                 : 51 min 40 s
Bit rate                                 : 57 b/s
Count of elements                        : 699
Stream size                              : 21.7 KiB (0%)
Language                                 : Malay
Default                                  : No
Forced                                   : No

Text #28
ID                                       : 30
Format                                   : UTF-8
Codec ID                                 : S_TEXT/UTF8
Codec ID/Info                            : UTF-8 Plain Text
Duration                                 : 51 min 40 s
Bit rate                                 : 59 b/s
Count of elements                        : 697
Stream size                              : 22.4 KiB (0%)
Language                                 : Norwegian Bokmal
Default                                  : No
Forced                                   : No

Text #29
ID                                       : 31
Format                                   : UTF-8
Codec ID                                 : S_TEXT/UTF8
Codec ID/Info                            : UTF-8 Plain Text
Duration                                 : 51 min 40 s
Bit rate                                 : 59 b/s
Count of elements                        : 697
Stream size                              : 22.4 KiB (0%)
Language                                 : Dutch
Default                                  : No
Forced                                   : No

Text #30
ID                                       : 32
Format                                   : UTF-8
Codec ID                                 : S_TEXT/UTF8
Codec ID/Info                            : UTF-8 Plain Text
Duration                                 : 51 min 40 s
Bit rate                                 : 51 b/s
Count of elements                        : 697
Stream size                              : 19.5 KiB (0%)
Language                                 : Polish
Default                                  : No
Forced                                   : No

Text #31
ID                                       : 33
Format                                   : UTF-8
Codec ID                                 : S_TEXT/UTF8
Codec ID/Info                            : UTF-8 Plain Text
Duration                                 : 51 min 40 s
Bit rate                                 : 56 b/s
Count of elements                        : 699
Stream size                              : 21.2 KiB (0%)
Language                                 : Portuguese
Default                                  : No
Forced                                   : No

Text #32
ID                                       : 34
Format                                   : UTF-8
Codec ID                                 : S_TEXT/UTF8
Codec ID/Info                            : UTF-8 Plain Text
Duration                                 : 51 min 40 s
Bit rate                                 : 59 b/s
Count of elements                        : 699
Stream size                              : 22.6 KiB (0%)
Language                                 : Portuguese
Default                                  : No
Forced                                   : No

Text #33
ID                                       : 35
Format                                   : UTF-8
Codec ID                                 : S_TEXT/UTF8
Codec ID/Info                            : UTF-8 Plain Text
Duration                                 : 51 min 40 s
Bit rate                                 : 67 b/s
Count of elements                        : 698
Stream size                              : 25.7 KiB (0%)
Language                                 : Romanian
Default                                  : No
Forced                                   : No

Text #34
ID                                       : 36
Format                                   : UTF-8
Codec ID                                 : S_TEXT/UTF8
Codec ID/Info                            : UTF-8 Plain Text
Duration                                 : 51 min 40 s
Bit rate                                 : 99 b/s
Count of elements                        : 698
Stream size                              : 37.7 KiB (0%)
Language                                 : Russian
Default                                  : No
Forced                                   : No

Text #35
ID                                       : 37
Format                                   : UTF-8
Codec ID                                 : S_TEXT/UTF8
Codec ID/Info                            : UTF-8 Plain Text
Duration                                 : 51 min 40 s
Bit rate                                 : 54 b/s
Count of elements                        : 697
Stream size                              : 20.6 KiB (0%)
Language                                 : Swedish
Default                                  : No
Forced                                   : No

Text #36
ID                                       : 38
Format                                   : UTF-8
Codec ID                                 : S_TEXT/UTF8
Codec ID/Info                            : UTF-8 Plain Text
Duration                                 : 51 min 40 s
Bit rate                                 : 155 b/s
Count of elements                        : 698
Stream size                              : 58.9 KiB (0%)
Language                                 : Tamil
Default                                  : No
Forced                                   : No

Text #37
ID                                       : 39
Format                                   : UTF-8
Codec ID                                 : S_TEXT/UTF8
Codec ID/Info                            : UTF-8 Plain Text
Duration                                 : 51 min 40 s
Bit rate                                 : 167 b/s
Count of elements                        : 698
Stream size                              : 63.4 KiB (0%)
Language                                 : Telugu
Default                                  : No
Forced                                   : No

Text #38
ID                                       : 40
Format                                   : UTF-8
Codec ID                                 : S_TEXT/UTF8
Codec ID/Info                            : UTF-8 Plain Text
Duration                                 : 51 min 40 s
Bit rate                                 : 158 b/s
Count of elements                        : 699
Stream size                              : 60.2 KiB (0%)
Language                                 : Thai
Default                                  : No
Forced                                   : No

Text #39
ID                                       : 41
Format                                   : UTF-8
Codec ID                                 : S_TEXT/UTF8
Codec ID/Info                            : UTF-8 Plain Text
Duration                                 : 51 min 40 s
Bit rate                                 : 61 b/s
Count of elements                        : 697
Stream size                              : 23.4 KiB (0%)
Language                                 : Turkish
Default                                  : No
Forced                                   : No

Text #40
ID                                       : 42
Format                                   : UTF-8
Codec ID                                 : S_TEXT/UTF8
Codec ID/Info                            : UTF-8 Plain Text
Duration                                 : 51 min 40 s
Bit rate                                 : 100 b/s
Count of elements                        : 699
Stream size                              : 38.0 KiB (0%)
Language                                 : Ukrainian
Default                                  : No
Forced                                   : No

Text #41
ID                                       : 43
Format                                   : UTF-8
Codec ID                                 : S_TEXT/UTF8
Codec ID/Info                            : UTF-8 Plain Text
Duration                                 : 51 min 40 s
Bit rate                                 : 76 b/s
Count of elements                        : 698
Stream size                              : 29.1 KiB (0%)
Language                                 : Vietnamese
Default                                  : No
Forced                                   : No

Text #42
ID                                       : 44
Format                                   : UTF-8
Codec ID                                 : S_TEXT/UTF8
Codec ID/Info                            : UTF-8 Plain Text
Duration                                 : 51 min 40 s
Bit rate                                 : 56 b/s
Count of elements                        : 698
Stream size                              : 21.4 KiB (0%)
Language                                 : Chinese
Default                                  : No
Forced                                   : No

Text #43
ID                                       : 45
Format                                   : UTF-8
Codec ID                                 : S_TEXT/UTF8
Codec ID/Info                            : UTF-8 Plain Text
Duration                                 : 51 min 40 s
Bit rate                                 : 51 b/s
Count of elements                        : 699
Stream size                              : 19.5 KiB (0%)
Language                                 : Chinese
Default                                  : No
Forced                                   : No

Menu
00:00:00.000                             : en:Prime Video
00:00:06.000                             : en:Scene 2
00:00:44.000                             : en:Scene 3
00:02:23.000                             : en:Opening Credits
00:03:58.000                             : en:Scene 5
00:05:12.000                             : en:Scene 6
00:05:50.000                             : en:Scene 7
00:07:27.000                             : en:Scene 8
00:09:00.000                             : en:Scene 9
00:11:17.000                             : en:Scene 10
00:12:46.000                             : en:Scene 11
00:15:38.000                             : en:Scene 12
00:17:09.000                             : en:Scene 13
00:19:42.000                             : en:Scene 14
00:20:26.000                             : en:Scene 15
00:21:31.000                             : en:Scene 16
00:24:35.000                             : en:Scene 17
00:30:13.000                             : en:Scene 18
00:31:40.000                             : en:Scene 19
00:32:25.000                             : en:Scene 20
00:33:09.000                             : en:Scene 21
00:34:51.000                             : en:Scene 22
00:39:55.000                             : en:Scene 23
00:43:36.000                             : en:Scene 24
00:44:34.000                             : en:Scene 25
00:46:42.000                             : en:Scene 26
00:49:17.000                             : en:End Credits
00:49:37.000                             : en:Next On The Peripheral
00:50:06.000                             : en:End Credits