General
Unique ID                                : 336882430479552547662511005162780864736 (0xFD713230FA7D097F0AFC161F4269B0E0)
Complete name                            : 22060120.mkv
Format                                   : Matroska
Format version                           : Version 4
File size                                : 2.63 GiB
Duration                                 : 42 min 24 s
Overall bit rate                         : 8 895 kb/s
Writing application                      : mkvmerge v68.0.0 ('The Curtain') 64-bit
Writing library                          : libebml v1.4.2 + libmatroska v1.6.4

Video
ID                                       : 1
Format                                   : AVC
Format/Info                              : Advanced Video Codec
Format profile                           : [email protected]
Format settings                          : CABAC / 4 Ref Frames
Format settings, CABAC                   : Yes
Format settings, Reference frames        : 4 frames
Codec ID                                 : V_MPEG4/ISO/AVC
Duration                                 : 42 min 24 s
Bit rate mode                            : Constant
Bit rate                                 : 8 252 kb/s
Nominal bit rate                         : 10 000 kb/s
Width                                    : 1 920 pixels
Height                                   : 1 080 pixels
Display aspect ratio                     : 16:9
Frame rate mode                          : Constant
Frame rate                               : 24.000 FPS
Color space                              : YUV
Chroma subsampling                       : 4:2:0
Bit depth                                : 8 bits
Scan type                                : Progressive
Bits/(Pixel*Frame)                       : 0.166
Stream size                              : 2.44 GiB (93%)
Default                                  : Yes
Forced                                   : No
Color range                              : Limited
Color primaries                          : BT.709
Transfer characteristics                 : BT.709
Matrix coefficients                      : BT.709

Audio
ID                                       : 2
Format                                   : E-AC-3
Format/Info                              : Enhanced AC-3
Commercial name                          : Dolby Digital Plus
Codec ID                                 : A_EAC3
Duration                                 : 42 min 24 s
Bit rate mode                            : Constant
Bit rate                                 : 640 kb/s
Channel(s)                               : 6 channels
Channel layout                           : L R C LFE Ls Rs
Sampling rate                            : 48.0 kHz
Frame rate                               : 31.250 FPS (1536 SPF)
Compression mode                         : Lossy
Stream size                              : 194 MiB (7%)
Language                                 : English
Service kind                             : Complete Main
Default                                  : Yes
Forced                                   : No

Text #1
ID                                       : 3
Format                                   : UTF-8
Codec ID                                 : S_TEXT/UTF8
Codec ID/Info                            : UTF-8 Plain Text
Duration                                 : 42 min 1 s
Bit rate                                 : 103 b/s
Count of elements                        : 997
Stream size                              : 31.9 KiB (0%)
Language                                 : English
Default                                  : No
Forced                                   : No

Text #2
ID                                       : 4
Format                                   : UTF-8
Codec ID                                 : S_TEXT/UTF8
Codec ID/Info                            : UTF-8 Plain Text
Duration                                 : 42 min 1 s
Bit rate                                 : 107 b/s
Count of elements                        : 1051
Stream size                              : 33.1 KiB (0%)
Language                                 : English
Default                                  : No
Forced                                   : No

Menu
00:00:00.000                             : en:Scene 1
00:00:04.000                             : en:Scene 2
00:00:40.000                             : en:Scene 3
00:01:14.000                             : en:Scene 4
00:01:52.000                             : en:Scene 5
00:02:45.000                             : en:Scene 6
00:03:38.000                             : en:Scene 7
00:04:28.000                             : en:Scene 8
00:05:25.000                             : en:Scene 9
00:08:24.000                             : en:Scene 10
00:09:58.000                             : en:Scene 11
00:11:39.000                             : en:Scene 12
00:12:30.000                             : en:Scene 13
00:13:58.000                             : en:Scene 14
00:14:50.000                             : en:Scene 15
00:16:10.000                             : en:Scene 16
00:17:28.000                             : en:Scene 17
00:18:02.000                             : en:Scene 18
00:19:23.000                             : en:Scene 19
00:19:51.000                             : en:Scene 20
00:20:40.000                             : en:Scene 21
00:22:17.000                             : en:Scene 22
00:23:03.000                             : en:Scene 23
00:24:05.000                             : en:Scene 24
00:24:54.000                             : en:Scene 25
00:25:27.000                             : en:Scene 26
00:26:15.000                             : en:Scene 27
00:26:59.000                             : en:Scene 28
00:29:34.000                             : en:Scene 29
00:29:51.000                             : en:Scene 30
00:30:32.000                             : en:Scene 31
00:31:19.000                             : en:Scene 32
00:32:08.000                             : en:Scene 33
00:34:15.000                             : en:Scene 34
00:35:54.000                             : en:Scene 35
00:36:28.000                             : en:Scene 36
00:38:55.000                             : en:Scene 37
00:40:17.000                             : en:Scene 38
00:41:45.000                             : en:Scene 39