General
Unique ID                                : 303958863439410904896023129426989577466 (0xE4AC59029AAE003039015CAAD49274FA)
Complete name                            : 22060106.mkv
Format                                   : Matroska
Format version                           : Version 4
File size                                : 4.04 GiB
Duration                                 : 1 h 1 min
Overall bit rate                         : 9 454 kb/s
Writing application                      : mkvmerge v72.0.0 ('Minuano (Six-eight)') 64-bit
Writing library                          : libebml v1.4.4 + libmatroska v1.7.1

Video
ID                                       : 1
Format                                   : AVC
Format/Info                              : Advanced Video Codec
Format profile                           : [email protected]
Format settings                          : CABAC / 4 Ref Frames
Format settings, CABAC                   : Yes
Format settings, Reference frames        : 4 frames
Codec ID                                 : V_MPEG4/ISO/AVC
Duration                                 : 1 h 1 min
Bit rate mode                            : Constant
Bit rate                                 : 8 807 kb/s
Nominal bit rate                         : 10 000 kb/s
Width                                    : 1 920 pixels
Height                                   : 960 pixels
Display aspect ratio                     : 2.000
Frame rate mode                          : Constant
Frame rate                               : 24.000 FPS
Color space                              : YUV
Chroma subsampling                       : 4:2:0
Bit depth                                : 8 bits
Scan type                                : Progressive
Bits/(Pixel*Frame)                       : 0.199
Stream size                              : 3.77 GiB (93%)
Default                                  : Yes
Forced                                   : No
Color range                              : Limited
Color primaries                          : BT.709
Transfer characteristics                 : BT.709
Matrix coefficients                      : BT.709

Audio
ID                                       : 2
Format                                   : E-AC-3
Format/Info                              : Enhanced AC-3
Commercial name                          : Dolby Digital Plus
Codec ID                                 : A_EAC3
Duration                                 : 1 h 1 min
Bit rate mode                            : Constant
Bit rate                                 : 640 kb/s
Channel(s)                               : 6 channels
Channel layout                           : L R C LFE Ls Rs
Sampling rate                            : 48.0 kHz
Frame rate                               : 31.250 FPS (1536 SPF)
Compression mode                         : Lossy
Stream size                              : 280 MiB (7%)
Language                                 : English
Service kind                             : Complete Main
Default                                  : Yes
Forced                                   : No

Text #1
ID                                       : 3
Format                                   : UTF-8
Codec ID                                 : S_TEXT/UTF8
Codec ID/Info                            : UTF-8 Plain Text
Duration                                 : 17 s 167 ms
Bit rate                                 : 114 b/s
Count of elements                        : 8
Stream size                              : 245 Bytes (0%)
Language                                 : English
Default                                  : Yes
Forced                                   : Yes

Text #2
ID                                       : 4
Format                                   : UTF-8
Codec ID                                 : S_TEXT/UTF8
Codec ID/Info                            : UTF-8 Plain Text
Duration                                 : 56 min 23 s
Bit rate                                 : 64 b/s
Count of elements                        : 861
Stream size                              : 26.8 KiB (0%)
Language                                 : English
Default                                  : No
Forced                                   : No

Text #3
ID                                       : 5
Format                                   : UTF-8
Codec ID                                 : S_TEXT/UTF8
Codec ID/Info                            : UTF-8 Plain Text
Duration                                 : 58 min 4 s
Bit rate                                 : 69 b/s
Count of elements                        : 995
Stream size                              : 29.7 KiB (0%)
Language                                 : English
Default                                  : No
Forced                                   : No

Text #4
ID                                       : 6
Format                                   : UTF-8
Codec ID                                 : S_TEXT/UTF8
Codec ID/Info                            : UTF-8 Plain Text
Duration                                 : 58 min 9 s
Bit rate                                 : 95 b/s
Count of elements                        : 699
Stream size                              : 40.7 KiB (0%)
Language                                 : Arabic
Default                                  : No
Forced                                   : No

Text #5
ID                                       : 7
Format                                   : UTF-8
Codec ID                                 : S_TEXT/UTF8
Codec ID/Info                            : UTF-8 Plain Text
Duration                                 : 58 min 9 s
Bit rate                                 : 54 b/s
Count of elements                        : 697
Stream size                              : 23.4 KiB (0%)
Language                                 : Catalan
Default                                  : No
Forced                                   : No

Text #6
ID                                       : 8
Format                                   : UTF-8
Codec ID                                 : S_TEXT/UTF8
Codec ID/Info                            : UTF-8 Plain Text
Duration                                 : 58 min 9 s
Bit rate                                 : 59 b/s
Count of elements                        : 699
Stream size                              : 25.4 KiB (0%)
Language                                 : Czech
Default                                  : No
Forced                                   : No

Text #7
ID                                       : 9
Format                                   : UTF-8
Codec ID                                 : S_TEXT/UTF8
Codec ID/Info                            : UTF-8 Plain Text
Duration                                 : 58 min 9 s
Bit rate                                 : 51 b/s
Count of elements                        : 697
Stream size                              : 22.1 KiB (0%)
Language                                 : Danish
Default                                  : No
Forced                                   : No

Text #8
ID                                       : 10
Format                                   : UTF-8
Codec ID                                 : S_TEXT/UTF8
Codec ID/Info                            : UTF-8 Plain Text
Duration                                 : 58 min 9 s
Bit rate                                 : 58 b/s
Count of elements                        : 698
Stream size                              : 24.9 KiB (0%)
Language                                 : German
Default                                  : No
Forced                                   : No

Text #9
ID                                       : 11
Format                                   : UTF-8
Codec ID                                 : S_TEXT/UTF8
Codec ID/Info                            : UTF-8 Plain Text
Duration                                 : 58 min 9 s
Bit rate                                 : 107 b/s
Count of elements                        : 698
Stream size                              : 45.8 KiB (0%)
Language                                 : Greek
Default                                  : No
Forced                                   : No

Text #10
ID                                       : 12
Format                                   : UTF-8
Codec ID                                 : S_TEXT/UTF8
Codec ID/Info                            : UTF-8 Plain Text
Duration                                 : 58 min 9 s
Bit rate                                 : 55 b/s
Count of elements                        : 698
Stream size                              : 23.6 KiB (0%)
Language                                 : Spanish
Default                                  : No
Forced                                   : No

Text #11
ID                                       : 13
Format                                   : UTF-8
Codec ID                                 : S_TEXT/UTF8
Codec ID/Info                            : UTF-8 Plain Text
Duration                                 : 58 min 9 s
Bit rate                                 : 54 b/s
Count of elements                        : 697
Stream size                              : 23.0 KiB (0%)
Language                                 : Spanish
Default                                  : No
Forced                                   : No

Text #12
ID                                       : 14
Format                                   : UTF-8
Codec ID                                 : S_TEXT/UTF8
Codec ID/Info                            : UTF-8 Plain Text
Duration                                 : 58 min 9 s
Bit rate                                 : 50 b/s
Count of elements                        : 697
Stream size                              : 21.4 KiB (0%)
Language                                 : Basque
Default                                  : No
Forced                                   : No

Text #13
ID                                       : 15
Format                                   : UTF-8
Codec ID                                 : S_TEXT/UTF8
Codec ID/Info                            : UTF-8 Plain Text
Duration                                 : 58 min 9 s
Bit rate                                 : 48 b/s
Count of elements                        : 697
Stream size                              : 20.9 KiB (0%)
Language                                 : Finnish
Default                                  : No
Forced                                   : No

Text #14
ID                                       : 16
Format                                   : UTF-8
Codec ID                                 : S_TEXT/UTF8
Codec ID/Info                            : UTF-8 Plain Text
Duration                                 : 58 min 9 s
Bit rate                                 : 54 b/s
Count of elements                        : 686
Stream size                              : 23.3 KiB (0%)
Language                                 : fil
Default                                  : No
Forced                                   : No

Text #15
ID                                       : 17
Format                                   : UTF-8
Codec ID                                 : S_TEXT/UTF8
Codec ID/Info                            : UTF-8 Plain Text
Duration                                 : 58 min 9 s
Bit rate                                 : 57 b/s
Count of elements                        : 699
Stream size                              : 24.3 KiB (0%)
Language                                 : French
Default                                  : No
Forced                                   : No

Text #16
ID                                       : 18
Format                                   : UTF-8
Codec ID                                 : S_TEXT/UTF8
Codec ID/Info                            : UTF-8 Plain Text
Duration                                 : 56 min 27 s
Bit rate                                 : 61 b/s
Count of elements                        : 813
Stream size                              : 25.4 KiB (0%)
Language                                 : French
Default                                  : No
Forced                                   : No

Text #17
ID                                       : 19
Format                                   : UTF-8
Codec ID                                 : S_TEXT/UTF8
Codec ID/Info                            : UTF-8 Plain Text
Duration                                 : 58 min 9 s
Bit rate                                 : 51 b/s
Count of elements                        : 694
Stream size                              : 22.0 KiB (0%)
Language                                 : Galician
Default                                  : No
Forced                                   : No

Text #18
ID                                       : 20
Format                                   : UTF-8
Codec ID                                 : S_TEXT/UTF8
Codec ID/Info                            : UTF-8 Plain Text
Duration                                 : 58 min 9 s
Bit rate                                 : 91 b/s
Count of elements                        : 699
Stream size                              : 39.2 KiB (0%)
Language                                 : Hebrew
Default                                  : No
Forced                                   : No

Text #19
ID                                       : 21
Format                                   : UTF-8
Codec ID                                 : S_TEXT/UTF8
Codec ID/Info                            : UTF-8 Plain Text
Duration                                 : 58 min 9 s
Bit rate                                 : 135 b/s
Count of elements                        : 699
Stream size                              : 57.7 KiB (0%)
Language                                 : Hindi
Default                                  : No
Forced                                   : No

Text #20
ID                                       : 22
Format                                   : UTF-8
Codec ID                                 : S_TEXT/UTF8
Codec ID/Info                            : UTF-8 Plain Text
Duration                                 : 58 min 9 s
Bit rate                                 : 57 b/s
Count of elements                        : 699
Stream size                              : 24.5 KiB (0%)
Language                                 : Hungarian
Default                                  : No
Forced                                   : No

Text #21
ID                                       : 23
Format                                   : UTF-8
Codec ID                                 : S_TEXT/UTF8
Codec ID/Info                            : UTF-8 Plain Text
Duration                                 : 58 min 9 s
Bit rate                                 : 54 b/s
Count of elements                        : 698
Stream size                              : 23.2 KiB (0%)
Language                                 : Indonesian
Default                                  : No
Forced                                   : No

Text #22
ID                                       : 24
Format                                   : UTF-8
Codec ID                                 : S_TEXT/UTF8
Codec ID/Info                            : UTF-8 Plain Text
Duration                                 : 58 min 9 s
Bit rate                                 : 57 b/s
Count of elements                        : 698
Stream size                              : 24.4 KiB (0%)
Language                                 : Italian
Default                                  : No
Forced                                   : No

Text #23
ID                                       : 25
Format                                   : UTF-8
Codec ID                                 : S_TEXT/UTF8
Codec ID/Info                            : UTF-8 Plain Text
Duration                                 : 58 min 9 s
Bit rate                                 : 48 b/s
Count of elements                        : 681
Stream size                              : 20.5 KiB (0%)
Language                                 : Japanese
Default                                  : No
Forced                                   : No

Text #24
ID                                       : 26
Format                                   : UTF-8
Codec ID                                 : S_TEXT/UTF8
Codec ID/Info                            : UTF-8 Plain Text
Duration                                 : 58 min 9 s
Bit rate                                 : 145 b/s
Count of elements                        : 699
Stream size                              : 61.8 KiB (0%)
Language                                 : Kannada
Default                                  : No
Forced                                   : No

Text #25
ID                                       : 27
Format                                   : UTF-8
Codec ID                                 : S_TEXT/UTF8
Codec ID/Info                            : UTF-8 Plain Text
Duration                                 : 58 min 9 s
Bit rate                                 : 59 b/s
Count of elements                        : 699
Stream size                              : 25.3 KiB (0%)
Language                                 : Korean
Default                                  : No
Forced                                   : No

Text #26
ID                                       : 28
Format                                   : UTF-8
Codec ID                                 : S_TEXT/UTF8
Codec ID/Info                            : UTF-8 Plain Text
Duration                                 : 58 min 9 s
Bit rate                                 : 155 b/s
Count of elements                        : 699
Stream size                              : 66.4 KiB (0%)
Language                                 : Malayalam
Default                                  : No
Forced                                   : No

Text #27
ID                                       : 29
Format                                   : UTF-8
Codec ID                                 : S_TEXT/UTF8
Codec ID/Info                            : UTF-8 Plain Text
Duration                                 : 58 min 9 s
Bit rate                                 : 51 b/s
Count of elements                        : 698
Stream size                              : 21.8 KiB (0%)
Language                                 : Malay
Default                                  : No
Forced                                   : No

Text #28
ID                                       : 30
Format                                   : UTF-8
Codec ID                                 : S_TEXT/UTF8
Codec ID/Info                            : UTF-8 Plain Text
Duration                                 : 58 min 9 s
Bit rate                                 : 54 b/s
Count of elements                        : 697
Stream size                              : 23.2 KiB (0%)
Language                                 : Norwegian Bokmal
Default                                  : No
Forced                                   : No

Text #29
ID                                       : 31
Format                                   : UTF-8
Codec ID                                 : S_TEXT/UTF8
Codec ID/Info                            : UTF-8 Plain Text
Duration                                 : 58 min 9 s
Bit rate                                 : 54 b/s
Count of elements                        : 697
Stream size                              : 23.3 KiB (0%)
Language                                 : Dutch
Default                                  : No
Forced                                   : No

Text #30
ID                                       : 32
Format                                   : UTF-8
Codec ID                                 : S_TEXT/UTF8
Codec ID/Info                            : UTF-8 Plain Text
Duration                                 : 58 min 9 s
Bit rate                                 : 45 b/s
Count of elements                        : 696
Stream size                              : 19.4 KiB (0%)
Language                                 : Polish
Default                                  : No
Forced                                   : No

Text #31
ID                                       : 33
Format                                   : UTF-8
Codec ID                                 : S_TEXT/UTF8
Codec ID/Info                            : UTF-8 Plain Text
Duration                                 : 58 min 9 s
Bit rate                                 : 51 b/s
Count of elements                        : 698
Stream size                              : 22.0 KiB (0%)
Language                                 : Portuguese
Default                                  : No
Forced                                   : No

Text #32
ID                                       : 34
Format                                   : UTF-8
Codec ID                                 : S_TEXT/UTF8
Codec ID/Info                            : UTF-8 Plain Text
Duration                                 : 58 min 9 s
Bit rate                                 : 55 b/s
Count of elements                        : 699
Stream size                              : 23.5 KiB (0%)
Language                                 : Portuguese
Default                                  : No
Forced                                   : No

Text #33
ID                                       : 35
Format                                   : UTF-8
Codec ID                                 : S_TEXT/UTF8
Codec ID/Info                            : UTF-8 Plain Text
Duration                                 : 58 min 9 s
Bit rate                                 : 61 b/s
Count of elements                        : 698
Stream size                              : 26.2 KiB (0%)
Language                                 : Romanian
Default                                  : No
Forced                                   : No

Text #34
ID                                       : 36
Format                                   : UTF-8
Codec ID                                 : S_TEXT/UTF8
Codec ID/Info                            : UTF-8 Plain Text
Duration                                 : 58 min 9 s
Bit rate                                 : 90 b/s
Count of elements                        : 695
Stream size                              : 38.6 KiB (0%)
Language                                 : Russian
Default                                  : No
Forced                                   : No

Text #35
ID                                       : 37
Format                                   : UTF-8
Codec ID                                 : S_TEXT/UTF8
Codec ID/Info                            : UTF-8 Plain Text
Duration                                 : 58 min 9 s
Bit rate                                 : 50 b/s
Count of elements                        : 691
Stream size                              : 21.4 KiB (0%)
Language                                 : Swedish
Default                                  : No
Forced                                   : No

Text #36
ID                                       : 38
Format                                   : UTF-8
Codec ID                                 : S_TEXT/UTF8
Codec ID/Info                            : UTF-8 Plain Text
Duration                                 : 58 min 9 s
Bit rate                                 : 150 b/s
Count of elements                        : 699
Stream size                              : 64.1 KiB (0%)
Language                                 : Tamil
Default                                  : No
Forced                                   : No

Text #37
ID                                       : 39
Format                                   : UTF-8
Codec ID                                 : S_TEXT/UTF8
Codec ID/Info                            : UTF-8 Plain Text
Duration                                 : 58 min 9 s
Bit rate                                 : 153 b/s
Count of elements                        : 699
Stream size                              : 65.2 KiB (0%)
Language                                 : Telugu
Default                                  : No
Forced                                   : No

Text #38
ID                                       : 40
Format                                   : UTF-8
Codec ID                                 : S_TEXT/UTF8
Codec ID/Info                            : UTF-8 Plain Text
Duration                                 : 58 min 9 s
Bit rate                                 : 146 b/s
Count of elements                        : 699
Stream size                              : 62.3 KiB (0%)
Language                                 : Thai
Default                                  : No
Forced                                   : No

Text #39
ID                                       : 41
Format                                   : UTF-8
Codec ID                                 : S_TEXT/UTF8
Codec ID/Info                            : UTF-8 Plain Text
Duration                                 : 58 min 9 s
Bit rate                                 : 56 b/s
Count of elements                        : 698
Stream size                              : 24.0 KiB (0%)
Language                                 : Turkish
Default                                  : No
Forced                                   : No

Text #40
ID                                       : 42
Format                                   : UTF-8
Codec ID                                 : S_TEXT/UTF8
Codec ID/Info                            : UTF-8 Plain Text
Duration                                 : 58 min 9 s
Bit rate                                 : 92 b/s
Count of elements                        : 699
Stream size                              : 39.3 KiB (0%)
Language                                 : Ukrainian
Default                                  : No
Forced                                   : No

Text #41
ID                                       : 43
Format                                   : UTF-8
Codec ID                                 : S_TEXT/UTF8
Codec ID/Info                            : UTF-8 Plain Text
Duration                                 : 58 min 9 s
Bit rate                                 : 70 b/s
Count of elements                        : 698
Stream size                              : 30.0 KiB (0%)
Language                                 : Vietnamese
Default                                  : No
Forced                                   : No

Text #42
ID                                       : 44
Format                                   : UTF-8
Codec ID                                 : S_TEXT/UTF8
Codec ID/Info                            : UTF-8 Plain Text
Duration                                 : 58 min 9 s
Bit rate                                 : 51 b/s
Count of elements                        : 699
Stream size                              : 21.8 KiB (0%)
Language                                 : Chinese
Default                                  : No
Forced                                   : No

Text #43
ID                                       : 45
Format                                   : UTF-8
Codec ID                                 : S_TEXT/UTF8
Codec ID/Info                            : UTF-8 Plain Text
Duration                                 : 58 min 9 s
Bit rate                                 : 47 b/s
Count of elements                        : 699
Stream size                              : 20.2 KiB (0%)
Language                                 : Chinese
Default                                  : No
Forced                                   : No

Menu
00:00:00.000                             : en:Prime Video
00:00:07.000                             : en:Previously On
00:00:52.000                             : en:Scene 3
00:04:19.000                             : en:Scene 4
00:04:39.000                             : en:Opening Credits
00:06:14.000                             : en:Scene 6
00:07:48.000                             : en:Scene 7
00:11:04.000                             : en:Scene 8
00:14:35.000                             : en:Scene 9
00:19:41.000                             : en:Scene 10
00:20:41.000                             : en:Scene 11
00:25:15.000                             : en:Scene 12
00:26:28.000                             : en:Scene 13
00:28:41.000                             : en:Scene 14
00:32:55.000                             : en:Scene 15
00:34:59.000                             : en:Scene 16
00:37:14.000                             : en:Scene 17
00:39:36.000                             : en:Scene 18
00:40:38.000                             : en:Scene 19
00:43:28.000                             : en:Scene 20
00:48:11.000                             : en:Scene 21
00:48:41.000                             : en:Scene 22
00:53:24.000                             : en:Scene 23
00:54:06.000                             : en:Scene 24
00:55:44.000                             : en:End Credits
00:56:03.000                             : en:Next On The Peripheral
00:56:35.000                             : en:End Credits