foobar2000 1.6.6 / Dynamic Range Meter 1.1.1
log date: 2022-02-12 11:51:50

--------------------------------------------------------------------------------
Analyzed: Mikhail Pletnev / Live at Victoria-Hall
--------------------------------------------------------------------------------

DR         Peak         RMS     Duration Track
--------------------------------------------------------------------------------
DR12      -3.64 dB   -20.35 dB      6:51 01-Konig Stephan Overture, Op. 117 (Live Recording, Geneva 2021)
DR15      -3.46 dB   -23.54 dB     17:34 02-Piano Concerto No. 3 in C Minor, Op. 37: I. Allegro con brio (Live Recording, Geneva 2021)
DR13      -8.64 dB   -27.46 dB      8:51 03-Piano Concerto No. 3 in C Minor, Op. 37: II. Largo (Live Recording, Geneva 2021)
DR14      -3.53 dB   -22.67 dB     10:29 04-Piano Concerto No. 3 in C Minor, Op. 37: III. Rondo (Live Recording, Geneva 2021)
DR13     -10.47 dB   -33.10 dB      1:31 05-Carmen-Suite, One-Act Ballet: I. Introduction (Live Recording, Geneva 2021)
DR14      -2.77 dB   -23.97 dB      2:15 06-Carmen-Suite, One-Act Ballet: II. Dance (Live Recording, Geneva 2021)
DR14      -5.37 dB   -26.24 dB      1:04 07-Carmen-Suite, One-Act Ballet: III. Intermezzo I (Live Recording, Geneva 2021)
DR15      -7.37 dB   -29.74 dB      1:54 08-Carmen-Suite, One-Act Ballet: IV. Changing of the Guard (Live Recording, Geneva 2021)
DR16      -5.85 dB   -27.79 dB      3:08 09-Carmen-Suite, One-Act Ballet: V. Carmen's Entrance and Habanera (Live Recording, Geneva 2021)
DR17      -1.12 dB   -25.80 dB      6:49 10-Carmen-Suite, One-Act Ballet: VI. Scene (Live Recording, Geneva 2021)
DR11     -14.86 dB   -30.23 dB      2:05 11-Carmen-Suite, One-Act Ballet: VII. Intermezzo II (Live Recording, Geneva 2021)
DR13      -3.09 dB   -20.00 dB      1:11 12-Carmen-Suite, One-Act Ballet: VIII. Boléro (Live Recording, Geneva 2021)
DR15       0.00 dB   -21.76 dB      3:10 13-Carmen-Suite, One-Act Ballet: IX. Torero (Live Recording, Geneva 2021)
DR16     -11.19 dB   -35.12 dB      4:14 14-Carmen-Suite, One-Act Ballet: X. Torero and Carmen (Live Recording, Geneva 2021)
DR15      -0.93 dB   -22.73 dB      4:57 15-Carmen-Suite, One-Act Ballet: XI. Adagio (Live Recording, Geneva 2021)
DR16      -2.25 dB   -24.01 dB      4:18 16-Carmen-Suite, One-Act Ballet: XII. Fortune Telling (Live Recording, Geneva 2021)
DR17      -0.19 dB   -23.44 dB      6:03 17-Carmen-Suite, One-Act Ballet: XIII. Finale (Live Recording, Geneva 2021)
--------------------------------------------------------------------------------

Number of tracks:  17
Official DR value: DR15
Samplerate:        192000 Hz
Channels:          2
Bits per sample:   24
Bitrate:           4456 kbps
Codec:             FLAC
================================================================================